999
DXF file: C:\Users\suzanne.stasiak\OneDrive - qsc.com\Desktop\fg-901639-2d-A1.dxf
999
Pro/ENGINEER 2022014 by Parametric Technology Corporation
  0
SECTION
  2
HEADER
  9
$ACADVER
  1
AC1015
  9
$DWGCODEPAGE
  3
ANSI_1252
  9
$EXTMAX
 10
3454.4
 20
2235.2
 30
0.0
  9
$EXTMIN
 10
0.0
 20
0.0
 30
0.0
  9
$LIMMIN
 10
0.0
 20
0.0
  9
$LIMMAX
 10
3454.4
 20
2235.2
  9
$VIEWCTR
 10
1727.2
 20
1117.6
  9
$VIEWSIZE
 40
2235.2
  9
$CLAYER
  8
0
  9
$LTSCALE
 40
189.992
  9
$CELTYPE
  6
BYLAYER
  9
$DIMSCALE
 40
1.0
  9
$DIMASZ
 40
16.0
  9
$DIMEXO
 40
1.5875
  9
$DIMDLI
 40
131.2672
  9
$DIMEXE
 40
3.175
  9
$DIMCEN
 40
31.0896
  9
$DIMLFAC
 40
1.0
  9
$DIMBLK
  1
_FILLED
  9
$DIMALT
 70
1
  9
$DIMALTD
 70
1
  9
$DIMALTTD
 70
2
  9
$DIMALTF
 40
0.0393700787
  9
$DIMTXT
 40
18.288
  9
$DIMTOL
 70
1
  9
$DIMLIM
 70
0
  9
$DIMTFAC
 40
1.0
  9
$DIMTP
 40
0.02
  9
$DIMTM
 40
0.02
  9
$DIMGAP
 40
0.625
  9
$DIMDSEP
 70
46
  9
$AUNITS
 70
0
  9
$PDMODE
 70
3
  9
$PDSIZE
 40
7.9375
  9
$HANDSEED
  5
627
  9
$TILEMODE
 70
1
  9
$MEASUREMENT
 70
1
  9
$INSUNITS
 70
4
  0
ENDSEC
  0
SECTION
  2
CLASSES
  0
CLASS
  1
ACDBDICTIONARYWDFLT
  2
AcDbDictionaryWithDefault
  3
AutoCAD 2000
 90
0
280
0
281
0
  0
CLASS
  1
ACDBPLACEHOLDER
  2
AcDbPlaceHolder
  3
AutoCAD 2000
 90
0
280
0
281
0
  0
CLASS
  1
LAYOUT
  2
AcDbLayout
  3
AutoCAD 2000
 90
0
280
0
281
0
  0
ENDSEC
  0
SECTION
  2
TABLES
  0
TABLE
  2
VPORT
  5
8
100
AcDbSymbolTable
 70
2
  0
VPORT
  5
1F4
100
AcDbSymbolTableRecord
100
AcDbViewportTableRecord
  2
*ACTIVE
 70
0
 10
0.0
 20
0.0
 11
1.0
 21
1.0
 12
1727.2
 22
1117.6
 13
0.0
 23
0.0
 14
1.0
 24
1.0
 15
0.0
 25
0.0
 16
0.0
 26
0.0
 36
1.0
 17
0.0
 27
0.0
 37
0.0
 40
2235.2
 41
1.5454545455
 42
50.0
 43
0.0
 44
0.0
 50
0.0
 51
0.0
 71
0
 72
100
 73
1
 74
1
 75
0
 76
0
 77
0
 78
0
  0
ENDTAB
  0
TABLE
  2
LTYPE
  5
5
100
AcDbSymbolTable
 70
6
  0
LTYPE
  5
14
100
AcDbSymbolTableRecord
100
AcDbLinetypeTableRecord
  2
BYBLOCK
 70
0
  3

 72
65
 73
0
 40
0.0
  0
LTYPE
  5
15
100
AcDbSymbolTableRecord
100
AcDbLinetypeTableRecord
  2
BYLAYER
 70
0
  3

 72
65
 73
0
 40
0.0
  0
LTYPE
  5
16
100
AcDbSymbolTableRecord
100
AcDbLinetypeTableRecord
  2
CONTINUOUS
 70
64
  3
Solid line
 72
65
 73
0
 40
0.0
  0
LTYPE
  5
1F5
100
AcDbSymbolTableRecord
100
AcDbLinetypeTableRecord
  2
CENTER
 70
64
  3
____ _ ____ _ ____ _ ____ _ ____ _ ____ _ ____
 72
65
 73
4
 40
0.6
 49
0.375
 74
0
 49
-0.075
 74
0
 49
0.075
 74
0
 49
-0.075
 74
0
  0
LTYPE
  5
1F6
100
AcDbSymbolTableRecord
100
AcDbLinetypeTableRecord
  2
HIDDEN
 70
64
  3
- - - - - - - - - - - - - - - - - - - -
 72
65
 73
2
 40
0.2
 49
0.1
 74
0
 49
-0.1
 74
0
  0
LTYPE
  5
1F7
100
AcDbSymbolTableRecord
100
AcDbLinetypeTableRecord
  2
PHANTOM
 70
64
  3
_____ _ _ _____ _ _ _____ _ _ _____
 72
65
 73
6
 40
0.8
 49
0.45
 74
0
 49
-0.05
 74
0
 49
0.1
 74
0
 49
-0.05
 74
0
 49
0.1
 74
0
 49
-0.05
 74
0
  0
LTYPE
  5
1F8
100
AcDbSymbolTableRecord
100
AcDbLinetypeTableRecord
  2
DOT
 70
64
  3
. . . . . . . . . . . . . . . . . . . .
 72
65
 73
2
 40
0.2
 49
0.1
 74
0
 49
-0.1
 74
0
  0
LTYPE
  5
1F9
100
AcDbSymbolTableRecord
100
AcDbLinetypeTableRecord
  2
DASHED
 70
64
  3
- - - - - - - - - - - - - - - - - - - -
 72
65
 73
2
 40
0.2
 49
0.1
 74
0
 49
-0.1
 74
0
  0
ENDTAB
  0
TABLE
  2
LAYER
  5
2
100
AcDbSymbolTable
 70
36
  0
LAYER
  5
10
100
AcDbSymbolTableRecord
100
AcDbLayerTableRecord
  2
0
 70
0
 62
7
  6
CONTINUOUS
370
-3
390
F
  0
LAYER
  5
1FA
100
AcDbSymbolTableRecord
100
AcDbLayerTableRecord
  2
DEFAULT_1
 70
0
 62
7
  6
CENTER
370
-3
390
F
  0
LAYER
  5
1FB
100
AcDbSymbolTableRecord
100
AcDbLayerTableRecord
  2
DEFAULT_2
 70
0
 62
8
  6
HIDDEN
370
-3
390
F
  0
LAYER
  5
1FC
100
AcDbSymbolTableRecord
100
AcDbLayerTableRecord
  2
DEFAULT_3
 70
0
 62
7
  6
PHANTOM
370
-3
390
F
  0
LAYER
  5
1FD
100
AcDbSymbolTableRecord
100
AcDbLayerTableRecord
  2
1_ALL_PLANES
 70
0
 62
7
  6
CONTINUOUS
370
-3
390
F
  0
LAYER
  5
1FE
100
AcDbSymbolTableRecord
100
AcDbLayerTableRecord
  2
1_DEF_PLANES
 70
0
 62
7
  6
CONTINUOUS
370
-3
390
F
  0
LAYER
  5
1FF
100
AcDbSymbolTableRecord
100
AcDbLayerTableRecord
  2
2_ALL_CSYS
 70
0
 62
7
  6
CONTINUOUS
370
-3
390
F
  0
LAYER
  5
200
100
AcDbSymbolTableRecord
100
AcDbLayerTableRecord
  2
2_DEF_CSYS
 70
0
 62
7
  6
CONTINUOUS
370
-3
390
F
  0
LAYER
  5
201
100
AcDbSymbolTableRecord
100
AcDbLayerTableRecord
  2
3_ALL_AXES
 70
0
 62
7
  6
CONTINUOUS
370
-3
390
F
  0
LAYER
  5
202
100
AcDbSymbolTableRecord
100
AcDbLayerTableRecord
  2
3_AXES_OTHER
 70
0
 62
7
  6
CONTINUOUS
370
-3
390
F
  0
LAYER
  5
203
100
AcDbSymbolTableRecord
100
AcDbLayerTableRecord
  2
3_HOLES
 70
0
 62
7
  6
CONTINUOUS
370
-3
390
F
  0
LAYER
  5
204
100
AcDbSymbolTableRecord
100
AcDbLayerTableRecord
  2
4_ALL_POINTS
 70
0
 62
7
  6
CONTINUOUS
370
-3
390
F
  0
LAYER
  5
205
100
AcDbSymbolTableRecord
100
AcDbLayerTableRecord
  2
5_ALL_CURVES
 70
0
 62
7
  6
CONTINUOUS
370
-3
390
F
  0
LAYER
  5
206
100
AcDbSymbolTableRecord
100
AcDbLayerTableRecord
  2
6_ALL_SURFS
 70
0
 62
7
  6
CONTINUOUS
370
-3
390
F
  0
LAYER
  5
207
100
AcDbSymbolTableRecord
100
AcDbLayerTableRecord
  2
6_COPYGEOM
 70
0
 62
7
  6
CONTINUOUS
370
-3
390
F
  0
LAYER
  5
208
100
AcDbSymbolTableRecord
100
AcDbLayerTableRecord
  2
7_ALL_ROUNDS
 70
0
 62
7
  6
CONTINUOUS
370
-3
390
F
  0
LAYER
  5
209
100
AcDbSymbolTableRecord
100
AcDbLayerTableRecord
  2
7_MERGES
 70
0
 62
7
  6
CONTINUOUS
370
-3
390
F
  0
LAYER
  5
20A
100
AcDbSymbolTableRecord
100
AcDbLayerTableRecord
  2
8_GDT
 70
0
 62
7
  6
CONTINUOUS
370
-3
390
F
  0
LAYER
  5
20B
100
AcDbSymbolTableRecord
100
AcDbLayerTableRecord
  2
8_SET_DATUMS
 70
0
 62
7
  6
CONTINUOUS
370
-3
390
F
  0
LAYER
  5
20C
100
AcDbSymbolTableRecord
100
AcDbLayerTableRecord
  2
9_COSMETICS
 70
0
 62
7
  6
CONTINUOUS
370
-3
390
F
  0
LAYER
  5
20D
100
AcDbSymbolTableRecord
100
AcDbLayerTableRecord
  2
9_THREADS
 70
0
 62
7
  6
CONTINUOUS
370
-3
390
F
  0
ENDTAB
  0
TABLE
  2
STYLE
  5
3
100
AcDbSymbolTable
 70
1
  0
STYLE
  5
11
100
AcDbSymbolTableRecord
100
AcDbTextStyleTableRecord
  2
STANDARD
 70
0
 40
0.0
 41
1.0
 50
0.0
 71
0
 42
0.2
  3
gothic.ttf
  4

1001
ACAD
1000
Century Gothic
1071
34
  0
STYLE
  5
20E
100
AcDbSymbolTableRecord
100
AcDbTextStyleTableRecord
  2
TEXTSTYLE_1
 70
0
 40
0.0
 41
0.8
 50
0.0
 71
0
 42
0.2
  3
gdt
  4

  0
STYLE
  5
20F
100
AcDbSymbolTableRecord
100
AcDbTextStyleTableRecord
  2
TEXTSTYLE_2
 70
0
 40
0.0
 41
1.0
 50
0.0
 71
0
 42
0.2
  3
gothic.ttf
  4

1001
ACAD
1000
Century Gothic
1071
34
  0
STYLE
  5
210
100
AcDbSymbolTableRecord
100
AcDbTextStyleTableRecord
  2
TEXTSTYLE_3
 70
0
 40
0.0
 41
1.0
 50
0.0
 71
0
 42
0.2
  3
gdt
  4

  0
ENDTAB
  0
TABLE
  2
VIEW
  5
6
100
AcDbSymbolTable
 70
0
  0
ENDTAB
  0
TABLE
  2
UCS
  5
7
100
AcDbSymbolTable
 70
0
  0
ENDTAB
  0
TABLE
  2
APPID
  5
9
100
AcDbSymbolTable
 70
1
  0
APPID
  5
211
100
AcDbSymbolTableRecord
100
AcDbRegAppTableRecord
  2
ACAD
 70
0
  0
ENDTAB
  0
TABLE
  2
BLOCK_RECORD
  5
1
100
AcDbSymbolTable
 70
0
  0
BLOCK_RECORD
  5
212
100
AcDbSymbolTableRecord
100
AcDbBlockTableRecord
  2
*Model_Space
  0
BLOCK_RECORD
  5
213
100
AcDbSymbolTableRecord
100
AcDbBlockTableRecord
  2
*Paper_Space
  0
BLOCK_RECORD
  5
214
100
AcDbSymbolTableRecord
100
AcDbBlockTableRecord
  2
_FILLED
  0
BLOCK_RECORD
  5
215
100
AcDbSymbolTableRecord
100
AcDbBlockTableRecord
  2
*D0
  0
BLOCK_RECORD
  5
216
100
AcDbSymbolTableRecord
100
AcDbBlockTableRecord
  2
*D1
  0
BLOCK_RECORD
  5
217
100
AcDbSymbolTableRecord
100
AcDbBlockTableRecord
  2
*D2
  0
BLOCK_RECORD
  5
218
100
AcDbSymbolTableRecord
100
AcDbBlockTableRecord
  2
*D3
  0
BLOCK_RECORD
  5
219
100
AcDbSymbolTableRecord
100
AcDbBlockTableRecord
  2
*D4
  0
BLOCK_RECORD
  5
21A
100
AcDbSymbolTableRecord
100
AcDbBlockTableRecord
  2
*D5
  0
BLOCK_RECORD
  5
21B
100
AcDbSymbolTableRecord
100
AcDbBlockTableRecord
  2
*D6
  0
BLOCK_RECORD
  5
21C
100
AcDbSymbolTableRecord
100
AcDbBlockTableRecord
  2
*D7
  0
BLOCK_RECORD
  5
21D
100
AcDbSymbolTableRecord
100
AcDbBlockTableRecord
  2
*D8
  0
BLOCK_RECORD
  5
21E
100
AcDbSymbolTableRecord
100
AcDbBlockTableRecord
  2
CG_3D_BL2
  0
BLOCK_RECORD
  5
21F
100
AcDbSymbolTableRecord
100
AcDbBlockTableRecord
  2
CG_3D_BL1
  0
BLOCK_RECORD
  5
220
100
AcDbSymbolTableRecord
100
AcDbBlockTableRecord
  2
CG_3D_BL0
  0
ENDTAB
  0
TABLE
  2
DIMSTYLE
  5
A
100
AcDbSymbolTable
 70
1
100
AcDbDimStyleTable
 71
0
  0
DIMSTYLE
105
221
100
AcDbSymbolTableRecord
100
AcDbDimStyleTableRecord
  2
STANDARD
 70
0
  3

  4

 40
1.0
 41
16.0
 42
1.5875
 43
0.38
 44
3.175
 45
0.0
 46
0.0
 47
0.02
 48
0.02
140
18.288
141
0.09
142
0.0
143
0.0393700787
144
1.0
145
0.0
146
1.0
147
0.625
 71
1
 72
0
 73
1
 74
1
 75
0
 76
0
 77
0
 78
4
 79
1
170
1
171
1
172
0
173
0
174
0
175
0
176
0
177
0
178
0
270
2
179
2
271
2
272
2
273
2
274
2
275
0
280
0
281
0
282
0
283
1
284
4
285
0
286
0
287
3
288
0
340
11
278
46
341
214
342
214
343
214
344
214
  0
DIMSTYLE
105
222
100
AcDbSymbolTableRecord
100
AcDbDimStyleTableRecord
  2
DIMSTYLE_1
 70
0
  3

  4

 40
1.0
 41
16.0
 42
1.5875
 43
0.38
 44
3.175
 45
0.0
 46
0.0
 47
0.5
 48
0.5
140
18.288
141
0.09
142
0.0
143
0.0393700787
144
1.0
145
0.0
146
1.0
147
1.143
 71
0
 72
0
 73
1
 74
1
 75
0
 76
0
 77
0
 78
4
 79
1
170
0
171
1
172
0
173
0
174
0
175
0
176
0
177
0
178
0
270
2
179
2
271
0
272
0
273
2
274
2
275
0
280
0
281
0
282
0
283
1
284
4
285
0
286
0
287
3
288
0
340
11
278
46
341
214
342
214
343
214
344
214
  0
DIMSTYLE
105
223
100
AcDbSymbolTableRecord
100
AcDbDimStyleTableRecord
  2
DIMSTYLE_2
 70
0
  3

  4

 40
1.0
 41
16.0
 42
1.5875
 43
0.38
 44
3.175
 45
0.0
 46
0.0
 47
0.02
 48
0.02
140
18.288
141
0.09
142
0.0
143
0.0393700787
144
1.0
145
0.0
146
1.0
147
1.143
 71
0
 72
0
 73
1
 74
1
 75
0
 76
0
 77
0
 78
4
 79
1
170
1
171
2
172
0
173
0
174
0
175
0
176
0
177
0
178
0
270
2
179
2
271
1
272
1
273
2
274
2
275
0
280
0
281
0
282
0
283
1
284
4
285
0
286
0
287
3
288
0
340
11
278
46
341
214
342
214
343
214
344
214
  0
DIMSTYLE
105
224
100
AcDbSymbolTableRecord
100
AcDbDimStyleTableRecord
  2
DIMSTYLE_3
 70
0
  3

  4

 40
1.0
 41
16.0
 42
1.5875
 43
0.38
 44
3.175
 45
0.0
 46
0.0
 47
0.02
 48
0.02
140
18.288
141
0.09
142
0.0
143
0.0393700787
144
1.0
145
0.0
146
1.0
147
1.143
 71
0
 72
0
 73
1
 74
1
 75
0
 76
0
 77
0
 78
4
 79
1
170
1
171
3
172
0
173
0
174
0
175
0
176
0
177
0
178
0
270
2
179
2
271
2
272
2
273
2
274
-1
275
0
280
0
281
0
282
0
283
1
284
4
285
0
286
0
287
3
288
0
340
11
278
46
341
214
342
214
343
214
344
214
  0
ENDTAB
  0
ENDSEC
  0
SECTION
  2
BLOCKS
  0
BLOCK
  5
20
100
AcDbEntity
  8
0
100
AcDbBlockBegin
  2
*Model_Space
 70
0
 10
0.0
 20
0.0
 30
0.0
  3
*Model_Space
  1

  0
ENDBLK
  5
21
100
AcDbEntity
  8
0
100
AcDbBlockEnd
  0
BLOCK
  5
1C
100
AcDbEntity
  8
0
100
AcDbBlockBegin
  2
*Paper_Space
 70
0
 10
0.0
 20
0.0
 30
0.0
  3
*Paper_Space
  1

  0
ENDBLK
  5
1D
100
AcDbEntity
  8
0
100
AcDbBlockEnd
  0
BLOCK
  5
225
100
AcDbEntity
  8
0
100
AcDbBlockBegin
 62
2
  6
CONTINUOUS
  2
CG_3D_BL2
 70
64
 10
1241.0318830956
 20
1615.7024752265
  3
CG_3D_BL2
  1

  0
ARC
  5
226
100
AcDbEntity
  8
0
100
AcDbCircle
 62
7
  6
CONTINUOUS
 10
1241.0318830956
 20
1615.7024752265
 40
20.0
100
AcDbArc
 50
90.0
 51
180.0
  0
ARC
  5
227
100
AcDbEntity
  8
0
100
AcDbCircle
 62
7
  6
CONTINUOUS
 10
1241.0318830956
 20
1615.7024752265
 40
20.0
100
AcDbArc
 50
180.0
 51
270.0
  0
ARC
  5
228
100
AcDbEntity
  8
0
100
AcDbCircle
 62
7
  6
CONTINUOUS
 10
1241.0318830956
 20
1615.7024752265
 40
20.0
100
AcDbArc
 50
270.0
 51
360.0
  0
ARC
  5
229
100
AcDbEntity
  8
0
100
AcDbCircle
 62
7
  6
CONTINUOUS
 10
1241.0318830956
 20
1615.7024752265
 40
20.0
100
AcDbArc
 50
0.0
 51
90.0
  0
LINE
  5
22A
100
AcDbEntity
  8
0
100
AcDbLine
 62
7
  6
CONTINUOUS
 10
1241.0318830956
 20
1615.7024752265
 11
1261.0318830956
 21
1615.7024752265
  0
LINE
  5
22B
100
AcDbEntity
  8
0
100
AcDbLine
 62
7
  6
CONTINUOUS
 10
1241.0318830956
 20
1615.7024752265
 11
1241.0318830956
 21
1595.7024752265
  0
LINE
  5
22C
100
AcDbEntity
  8
0
100
AcDbLine
 62
7
  6
CONTINUOUS
 10
1221.0318830956
 20
1615.7024752265
 11
1241.0318830956
 21
1615.7024752265
  0
LINE
  5
22D
100
AcDbEntity
  8
0
100
AcDbLine
 62
7
  6
CONTINUOUS
 10
1241.0318830956
 20
1635.7024752265
 11
1241.0318830956
 21
1615.7024752265
  0
LINE
  5
22E
100
AcDbEntity
  8
0
100
AcDbLine
 62
2
  6
CONTINUOUS
 10
1241.0318830956
 20
1615.5706620392
 11
1241.1636962829
 21
1615.7024752265
  0
LWPOLYLINE
  5
22F
100
AcDbEntity
  8
0
100
AcDbPolyline
 62
7
  6
CONTINUOUS
 90
8
 70
0
 10
1241.0318830956
 20
1615.7024752265
 10
1241.0318830956
 20
1595.7024752265
 10
1247.2122229831
 20
1596.6813449006
 10
1252.7875881414
 20
1599.522135339
 10
1257.2122229831
 20
1603.9467701806
 10
1260.0530134215
 20
1609.522135339
 10
1261.0318830956
 20
1615.7024752265
 10
1241.0318830956
 20
1615.7024752265
  0
HATCH
  5
230
100
AcDbEntity
  8
0
100
AcDbHatch
 62
7
  6
CONTINUOUS
 10
0.0
 20
0.0
 30
0.0
210
0.0
220
0.0
230
1.0
  2
SOLID
 70
1
 71
1
 91
1
 92
1
 93
7
 72
1
 10
1241.0318830956
 20
1615.7024752265
 11
1241.0318830956
 21
1595.7024752265
 72
1
 10
1241.0318830956
 20
1595.7024752265
 11
1247.2122229831
 21
1596.6813449006
 72
1
 10
1247.2122229831
 20
1596.6813449006
 11
1252.7875881414
 21
1599.522135339
 72
1
 10
1252.7875881414
 20
1599.522135339
 11
1257.2122229831
 21
1603.9467701806
 72
1
 10
1257.2122229831
 20
1603.9467701806
 11
1260.0530134215
 21
1609.522135339
 72
1
 10
1260.0530134215
 20
1609.522135339
 11
1261.0318830956
 21
1615.7024752265
 72
1
 10
1261.0318830956
 20
1615.7024752265
 11
1241.0318830956
 21
1615.7024752265
 97
1
330
22F
 75
0
 76
1
 98
1
 10
0.0
 20
0.0
  0
LWPOLYLINE
  5
231
100
AcDbEntity
  8
0
100
AcDbPolyline
 62
7
  6
CONTINUOUS
 90
8
 70
0
 10
1241.0318830956
 20
1615.7024752265
 10
1221.0318830956
 20
1615.7024752265
 10
1222.0107527697
 20
1621.882815114
 10
1224.8515432081
 20
1627.4581802723
 10
1229.2761780497
 20
1631.882815114
 10
1234.8515432081
 20
1634.7236055524
 10
1241.0318830956
 20
1635.7024752265
 10
1241.0318830956
 20
1615.7024752265
  0
HATCH
  5
232
100
AcDbEntity
  8
0
100
AcDbHatch
 62
7
  6
CONTINUOUS
 10
0.0
 20
0.0
 30
0.0
210
0.0
220
0.0
230
1.0
  2
SOLID
 70
1
 71
1
 91
1
 92
1
 93
7
 72
1
 10
1241.0318830956
 20
1615.7024752265
 11
1221.0318830956
 21
1615.7024752265
 72
1
 10
1221.0318830956
 20
1615.7024752265
 11
1222.0107527697
 21
1621.882815114
 72
1
 10
1222.0107527697
 20
1621.882815114
 11
1224.8515432081
 21
1627.4581802723
 72
1
 10
1224.8515432081
 20
1627.4581802723
 11
1229.2761780497
 21
1631.882815114
 72
1
 10
1229.2761780497
 20
1631.882815114
 11
1234.8515432081
 21
1634.7236055524
 72
1
 10
1234.8515432081
 20
1634.7236055524
 11
1241.0318830956
 21
1635.7024752265
 72
1
 10
1241.0318830956
 20
1635.7024752265
 11
1241.0318830956
 21
1615.7024752265
 97
1
330
231
 75
0
 76
1
 98
1
 10
0.0
 20
0.0
  0
ENDBLK
  5
233
100
AcDbEntity
  8
0
  6
BYBLOCK
 62
0
100
AcDbBlockEnd
  0
BLOCK
  5
234
100
AcDbEntity
  8
0
100
AcDbBlockBegin
 62
2
  6
CONTINUOUS
  2
CG_3D_BL1
 70
64
 10
1241.1905133076
 20
962.91820732
  3
CG_3D_BL1
  1

  0
ARC
  5
235
100
AcDbEntity
  8
0
100
AcDbCircle
 62
7
  6
CONTINUOUS
 10
1241.1905133076
 20
962.91820732
 40
20.0
100
AcDbArc
 50
90.0
 51
180.0
  0
ARC
  5
236
100
AcDbEntity
  8
0
100
AcDbCircle
 62
7
  6
CONTINUOUS
 10
1241.1905133076
 20
962.91820732
 40
20.0
100
AcDbArc
 50
180.0
 51
270.0
  0
ARC
  5
237
100
AcDbEntity
  8
0
100
AcDbCircle
 62
7
  6
CONTINUOUS
 10
1241.1905133076
 20
962.91820732
 40
20.0
100
AcDbArc
 50
270.0
 51
360.0
  0
ARC
  5
238
100
AcDbEntity
  8
0
100
AcDbCircle
 62
7
  6
CONTINUOUS
 10
1241.1905133076
 20
962.91820732
 40
20.0
100
AcDbArc
 50
0.0
 51
90.0
  0
LINE
  5
239
100
AcDbEntity
  8
0
100
AcDbLine
 62
7
  6
CONTINUOUS
 10
1241.1905133076
 20
962.91820732
 11
1261.1905133076
 21
962.91820732
  0
LINE
  5
23A
100
AcDbEntity
  8
0
100
AcDbLine
 62
7
  6
CONTINUOUS
 10
1241.1905133076
 20
962.91820732
 11
1241.1905133076
 21
942.91820732
  0
LINE
  5
23B
100
AcDbEntity
  8
0
100
AcDbLine
 62
7
  6
CONTINUOUS
 10
1221.1905133076
 20
962.91820732
 11
1241.1905133076
 21
962.91820732
  0
LINE
  5
23C
100
AcDbEntity
  8
0
100
AcDbLine
 62
7
  6
CONTINUOUS
 10
1241.1905133076
 20
982.91820732
 11
1241.1905133076
 21
962.91820732
  0
LINE
  5
23D
100
AcDbEntity
  8
0
100
AcDbLine
 62
2
  6
CONTINUOUS
 10
1241.1905133076
 20
962.7863941327
 11
1241.3223264948
 21
962.91820732
  0
LWPOLYLINE
  5
23E
100
AcDbEntity
  8
0
100
AcDbPolyline
 62
7
  6
CONTINUOUS
 90
8
 70
0
 10
1241.1905133076
 20
962.91820732
 10
1241.1905133076
 20
942.91820732
 10
1247.3708531951
 20
943.8970769941
 10
1252.9462183534
 20
946.7378674325
 10
1257.3708531951
 20
951.1625022741
 10
1260.2116436335
 20
956.7378674325
 10
1261.1905133076
 20
962.91820732
 10
1241.1905133076
 20
962.91820732
  0
HATCH
  5
23F
100
AcDbEntity
  8
0
100
AcDbHatch
 62
7
  6
CONTINUOUS
 10
0.0
 20
0.0
 30
0.0
210
0.0
220
0.0
230
1.0
  2
SOLID
 70
1
 71
1
 91
1
 92
1
 93
7
 72
1
 10
1241.1905133076
 20
962.91820732
 11
1241.1905133076
 21
942.91820732
 72
1
 10
1241.1905133076
 20
942.91820732
 11
1247.3708531951
 21
943.8970769941
 72
1
 10
1247.3708531951
 20
943.8970769941
 11
1252.9462183534
 21
946.7378674325
 72
1
 10
1252.9462183534
 20
946.7378674325
 11
1257.3708531951
 21
951.1625022741
 72
1
 10
1257.3708531951
 20
951.1625022741
 11
1260.2116436335
 21
956.7378674325
 72
1
 10
1260.2116436335
 20
956.7378674325
 11
1261.1905133076
 21
962.91820732
 72
1
 10
1261.1905133076
 20
962.91820732
 11
1241.1905133076
 21
962.91820732
 97
1
330
23E
 75
0
 76
1
 98
1
 10
0.0
 20
0.0
  0
LWPOLYLINE
  5
240
100
AcDbEntity
  8
0
100
AcDbPolyline
 62
7
  6
CONTINUOUS
 90
8
 70
0
 10
1241.1905133076
 20
962.91820732
 10
1221.1905133076
 20
962.91820732
 10
1222.1693829817
 20
969.0985472075
 10
1225.0101734201
 20
974.6739123658
 10
1229.4348082617
 20
979.0985472075
 10
1235.0101734201
 20
981.9393376459
 10
1241.1905133076
 20
982.91820732
 10
1241.1905133076
 20
962.91820732
  0
HATCH
  5
241
100
AcDbEntity
  8
0
100
AcDbHatch
 62
7
  6
CONTINUOUS
 10
0.0
 20
0.0
 30
0.0
210
0.0
220
0.0
230
1.0
  2
SOLID
 70
1
 71
1
 91
1
 92
1
 93
7
 72
1
 10
1241.1905133076
 20
962.91820732
 11
1221.1905133076
 21
962.91820732
 72
1
 10
1221.1905133076
 20
962.91820732
 11
1222.1693829817
 21
969.0985472075
 72
1
 10
1222.1693829817
 20
969.0985472075
 11
1225.0101734201
 21
974.6739123658
 72
1
 10
1225.0101734201
 20
974.6739123658
 11
1229.4348082617
 21
979.0985472075
 72
1
 10
1229.4348082617
 20
979.0985472075
 11
1235.0101734201
 21
981.9393376459
 72
1
 10
1235.0101734201
 20
981.9393376459
 11
1241.1905133076
 21
982.91820732
 72
1
 10
1241.1905133076
 20
982.91820732
 11
1241.1905133076
 21
962.91820732
 97
1
330
240
 75
0
 76
1
 98
1
 10
0.0
 20
0.0
  0
ENDBLK
  5
242
100
AcDbEntity
  8
0
  6
BYBLOCK
 62
0
100
AcDbBlockEnd
  0
BLOCK
  5
243
100
AcDbEntity
  8
0
100
AcDbBlockBegin
 62
2
  6
CONTINUOUS
  2
CG_3D_BL0
 70
64
 10
288.9218428717
 20
1937.237030476
  3
CG_3D_BL0
  1

  0
ARC
  5
244
100
AcDbEntity
  8
0
100
AcDbCircle
 62
7
  6
CONTINUOUS
 10
288.9218428717
 20
1937.237030476
 40
12.0
100
AcDbArc
 50
90.0
 51
180.0
  0
ARC
  5
245
100
AcDbEntity
  8
0
100
AcDbCircle
 62
7
  6
CONTINUOUS
 10
288.9218428717
 20
1937.237030476
 40
12.0
100
AcDbArc
 50
180.0
 51
270.0
  0
ARC
  5
246
100
AcDbEntity
  8
0
100
AcDbCircle
 62
7
  6
CONTINUOUS
 10
288.9218428717
 20
1937.237030476
 40
12.0
100
AcDbArc
 50
270.0
 51
360.0
  0
ARC
  5
247
100
AcDbEntity
  8
0
100
AcDbCircle
 62
7
  6
CONTINUOUS
 10
288.9218428717
 20
1937.237030476
 40
12.0
100
AcDbArc
 50
0.0
 51
90.0
  0
LINE
  5
248
100
AcDbEntity
  8
0
100
AcDbLine
 62
7
  6
CONTINUOUS
 10
288.9218428717
 20
1937.237030476
 11
300.9218428717
 21
1937.237030476
  0
LINE
  5
249
100
AcDbEntity
  8
0
100
AcDbLine
 62
7
  6
CONTINUOUS
 10
288.9218428717
 20
1937.237030476
 11
288.9218428717
 21
1925.237030476
  0
LINE
  5
24A
100
AcDbEntity
  8
0
100
AcDbLine
 62
7
  6
CONTINUOUS
 10
276.9218428717
 20
1937.237030476
 11
288.9218428717
 21
1937.237030476
  0
LINE
  5
24B
100
AcDbEntity
  8
0
100
AcDbLine
 62
7
  6
CONTINUOUS
 10
288.9218428717
 20
1949.237030476
 11
288.9218428717
 21
1937.237030476
  0
LINE
  5
24C
100
AcDbEntity
  8
0
100
AcDbLine
 62
2
  6
CONTINUOUS
 10
288.9218428717
 20
1937.1579425636
 11
289.000930784
 21
1937.237030476
  0
LWPOLYLINE
  5
24D
100
AcDbEntity
  8
0
100
AcDbPolyline
 62
7
  6
CONTINUOUS
 90
8
 70
0
 10
288.9218428717
 20
1937.237030476
 10
288.9218428717
 20
1925.237030476
 10
292.6300468042
 20
1925.8243522805
 10
295.9752658992
 20
1927.5288265435
 10
298.6300468042
 20
1930.1836074485
 10
300.3345210672
 20
1933.5288265435
 10
300.9218428717
 20
1937.237030476
 10
288.9218428717
 20
1937.237030476
  0
HATCH
  5
24E
100
AcDbEntity
  8
0
100
AcDbHatch
 62
7
  6
CONTINUOUS
 10
0.0
 20
0.0
 30
0.0
210
0.0
220
0.0
230
1.0
  2
SOLID
 70
1
 71
1
 91
1
 92
1
 93
7
 72
1
 10
288.9218428717
 20
1937.237030476
 11
288.9218428717
 21
1925.237030476
 72
1
 10
288.9218428717
 20
1925.237030476
 11
292.6300468042
 21
1925.8243522805
 72
1
 10
292.6300468042
 20
1925.8243522805
 11
295.9752658992
 21
1927.5288265435
 72
1
 10
295.9752658992
 20
1927.5288265435
 11
298.6300468042
 21
1930.1836074485
 72
1
 10
298.6300468042
 20
1930.1836074485
 11
300.3345210672
 21
1933.5288265435
 72
1
 10
300.3345210672
 20
1933.5288265435
 11
300.9218428717
 21
1937.237030476
 72
1
 10
300.9218428717
 20
1937.237030476
 11
288.9218428717
 21
1937.237030476
 97
1
330
24D
 75
0
 76
1
 98
1
 10
0.0
 20
0.0
  0
LWPOLYLINE
  5
24F
100
AcDbEntity
  8
0
100
AcDbPolyline
 62
7
  6
CONTINUOUS
 90
8
 70
0
 10
288.9218428717
 20
1937.237030476
 10
276.9218428717
 20
1937.237030476
 10
277.5091646761
 20
1940.9452344085
 10
279.2136389392
 20
1944.2904535035
 10
281.8684198442
 20
1946.9452344085
 10
285.2136389392
 20
1948.6497086715
 10
288.9218428717
 20
1949.237030476
 10
288.9218428717
 20
1937.237030476
  0
HATCH
  5
250
100
AcDbEntity
  8
0
100
AcDbHatch
 62
7
  6
CONTINUOUS
 10
0.0
 20
0.0
 30
0.0
210
0.0
220
0.0
230
1.0
  2
SOLID
 70
1
 71
1
 91
1
 92
1
 93
7
 72
1
 10
288.9218428717
 20
1937.237030476
 11
276.9218428717
 21
1937.237030476
 72
1
 10
276.9218428717
 20
1937.237030476
 11
277.5091646761
 21
1940.9452344085
 72
1
 10
277.5091646761
 20
1940.9452344085
 11
279.2136389392
 21
1944.2904535035
 72
1
 10
279.2136389392
 20
1944.2904535035
 11
281.8684198442
 21
1946.9452344085
 72
1
 10
281.8684198442
 20
1946.9452344085
 11
285.2136389392
 21
1948.6497086715
 72
1
 10
285.2136389392
 20
1948.6497086715
 11
288.9218428717
 21
1949.237030476
 72
1
 10
288.9218428717
 20
1949.237030476
 11
288.9218428717
 21
1937.237030476
 97
1
330
24F
 75
0
 76
1
 98
1
 10
0.0
 20
0.0
  0
ENDBLK
  5
251
100
AcDbEntity
  8
0
  6
BYBLOCK
 62
0
100
AcDbBlockEnd
  0
BLOCK
  5
252
100
AcDbEntity
  8
0
100
AcDbBlockBegin
  2
_FILLED
 70
64
 10
0.0
 20
0.0
  3
_FILLED
  1

  0
SOLID
  5
253
100
AcDbEntity
  8
0
  6
BYBLOCK
 62
0
100
AcDbTrace
 10
0.0
 20
0.0
 11
-1.0
 21
0.1275
 12
-1.0
 22
-0.1275
 13
-1.0
 23
-0.1275
  0
ENDBLK
  5
254
100
AcDbEntity
  8
0
  6
BYBLOCK
 62
0
100
AcDbBlockEnd
  0
BLOCK
  5
255
100
AcDbEntity
  8
0
100
AcDbBlockBegin
 62
2
  6
CONTINUOUS
  2
*D0
 70
65
 10
0.0
 20
0.0
  3
*D0
  1

  0
MTEXT
  5
256
100
AcDbEntity
  8
0
100
AcDbMText
 62
2
  6
CONTINUOUS
  7
STANDARD
 71
2
 72
1
 10
2148.6687722381
 20
819.1663465406
 30
0.0
 11
1.0
 21
0.0
 31
0.0
 73
2
 44
0.9
  1
30\fgdt;{\W1.0;{\fgdt;~}}
 40
18.288
 41
40.4738141264
  0
LINE
  5
257
100
AcDbEntity
  8
0
100
AcDbLine
 62
2
  6
CONTINUOUS
 10
2000.4218937607
 20
766.8967604283
 11
2179.7463633597
 21
766.8967604283
  0
LINE
  5
258
100
AcDbEntity
  8
0
100
AcDbLine
 62
2
  6
CONTINUOUS
 10
2016.0409244644
 20
783.2467604283
 11
2154.0199625816
 21
862.9089952278
  0
ARC
  5
259
100
AcDbEntity
  8
0
100
AcDbCircle
 62
2
  6
CONTINUOUS
 10
1987.7218937607
 20
766.8967604283
 40
166.624469599
100
AcDbArc
 50
0.0
 51
8.5726448361
  0
ARC
  5
25A
100
AcDbEntity
  8
0
100
AcDbCircle
 62
2
  6
CONTINUOUS
 10
1987.7218937607
 20
766.8967604283
 40
166.624469599
100
AcDbArc
 50
21.6277503855
 51
30.0
  0
SOLID
  5
25B
100
AcDbEntity
  8
0
100
AcDbTrace
 62
2
  6
CONTINUOUS
 10
2151.5408147873
 20
782.7804154613
 11
2154.3463633597
 21
766.8967604283
 12
2155.6161131496
 22
782.976229806
 13
2155.6161131496
 23
782.976229806
  0
SOLID
  5
25C
100
AcDbEntity
  8
0
100
AcDbTrace
 62
2
  6
CONTINUOUS
 10
2141.162287589
 20
836.9186411622
 11
2132.0229173255
 21
850.2089952278
 12
2137.5350685068
 22
835.050572178
 13
2137.5350685068
 23
835.050572178
  0
ENDBLK
  5
25D
100
AcDbEntity
  8
0
  6
BYBLOCK
 62
0
100
AcDbBlockEnd
  0
BLOCK
  5
25E
100
AcDbEntity
  8
0
100
AcDbBlockBegin
 62
2
  6
CONTINUOUS
  2
*D1
 70
65
 10
0.0
 20
0.0
  3
*D1
  1

  0
MTEXT
  5
25F
100
AcDbEntity
  8
0
100
AcDbMText
 62
2
  6
CONTINUOUS
  7
STANDARD
 71
2
 72
1
 10
1440.5492906758
 20
904.6976817142
 30
0.0
 11
1.0
 21
0.0
 31
0.0
 73
2
 44
0.9
  1
196,0\P[7.72]
 40
18.288
 41
67.4412490706
  0
LINE
  5
260
100
AcDbEntity
  8
0
100
AcDbLine
 62
2
  6
CONTINUOUS
 10
1385.7453503989
 20
766.8967604283
 11
1467.8528743189
 21
766.8967604283
  0
LINE
  5
261
100
AcDbEntity
  8
0
100
AcDbLine
 62
2
  6
CONTINUOUS
 10
1253.7453503989
 20
962.8967604283
 11
1467.8528743189
 21
962.8967604283
  0
LINE
  5
262
100
AcDbEntity
  8
0
100
AcDbLine
 62
2
  6
CONTINUOUS
 10
1442.4528743189
 20
766.8967604283
 11
1442.4528743189
 21
844.8707742188
  0
LINE
  5
263
100
AcDbEntity
  8
0
100
AcDbLine
 62
2
  6
CONTINUOUS
 10
1442.4528743189
 20
962.8967604283
 11
1442.4528743189
 21
913.8416817142
  0
INSERT
  5
264
100
AcDbEntity
  8
0
100
AcDbBlockReference
 62
2
  6
CONTINUOUS
  2
_FILLED
 10
1442.4528743189
 20
766.8967604283
 41
16.0
 42
16.0
 43
16.0
 50
270.0
  0
INSERT
  5
265
100
AcDbEntity
  8
0
100
AcDbBlockReference
 62
2
  6
CONTINUOUS
  2
_FILLED
 10
1442.4528743189
 20
962.8967604283
 41
16.0
 42
16.0
 43
16.0
 50
90.0
  0
ENDBLK
  5
266
100
AcDbEntity
  8
0
  6
BYBLOCK
 62
0
100
AcDbBlockEnd
  0
BLOCK
  5
267
100
AcDbEntity
  8
0
100
AcDbBlockBegin
 62
2
  6
CONTINUOUS
  2
*D2
 70
65
 10
0.0
 20
0.0
  3
*D2
  1

  0
MTEXT
  5
268
100
AcDbEntity
  8
0
100
AcDbMText
 62
2
  6
CONTINUOUS
  7
STANDARD
 71
2
 72
1
 10
1237.7951198937
 20
1359.2584287324
 30
0.0
 11
1.0
 21
0.0
 31
0.0
 73
2
 44
0.9
  1
312,0\P[12.28]
 40
18.288
 41
81.5821561338
  0
LINE
  5
269
100
AcDbEntity
  8
0
100
AcDbLine
 62
2
  6
CONTINUOUS
 10
1081.0453503989
 20
1502.8467500317
 11
1081.0453503989
 21
1324.7144287324
  0
LINE
  5
26A
100
AcDbEntity
  8
0
100
AcDbLine
 62
2
  6
CONTINUOUS
 10
1393.0453503989
 20
1502.8467500317
 11
1393.0453503989
 21
1324.7144287324
  0
LINE
  5
26B
100
AcDbEntity
  8
0
100
AcDbLine
 62
2
  6
CONTINUOUS
 10
1081.0453503989
 20
1350.1144287324
 11
1196.8340790015
 21
1350.1144287324
  0
LINE
  5
26C
100
AcDbEntity
  8
0
100
AcDbLine
 62
2
  6
CONTINUOUS
 10
1393.0453503989
 20
1350.1144287324
 11
1296.7042351353
 21
1350.1144287324
  0
INSERT
  5
26D
100
AcDbEntity
  8
0
100
AcDbBlockReference
 62
2
  6
CONTINUOUS
  2
_FILLED
 10
1081.0453503989
 20
1350.1144287324
 41
16.0
 42
16.0
 43
16.0
 50
180.0
  0
INSERT
  5
26E
100
AcDbEntity
  8
0
100
AcDbBlockReference
 62
2
  6
CONTINUOUS
  2
_FILLED
 10
1393.0453503989
 20
1350.1144287324
 41
16.0
 42
16.0
 43
16.0
  0
ENDBLK
  5
26F
100
AcDbEntity
  8
0
  6
BYBLOCK
 62
0
100
AcDbBlockEnd
  0
BLOCK
  5
270
100
AcDbEntity
  8
0
100
AcDbBlockBegin
 62
2
  6
CONTINUOUS
  2
*D3
 70
65
 10
0.0
 20
0.0
  3
*D3
  1

  0
MTEXT
  5
271
100
AcDbEntity
  8
0
100
AcDbMText
 62
2
  6
CONTINUOUS
  7
STANDARD
 71
2
 72
1
 10
1315.1417667558
 20
1458.3720458196
 30
0.0
 11
1.0
 21
0.0
 31
0.0
 73
2
 44
0.9
  1
152,00\P[5.984]
 40
18.288
 41
81.5821561338
  0
LINE
  5
272
100
AcDbEntity
  8
0
100
AcDbLine
 62
2
  6
CONTINUOUS
 10
1241.0453503989
 20
1416.5853333314
 11
1241.0453503989
 21
1474.6280458196
  0
LINE
  5
273
100
AcDbEntity
  8
0
100
AcDbLine
 62
2
  6
CONTINUOUS
 10
1393.0453503989
 20
1424.3351759123
 11
1393.0453503989
 21
1474.6280458196
  0
LINE
  5
274
100
AcDbEntity
  8
0
100
AcDbLine
 62
2
  6
CONTINUOUS
 10
1241.0453503989
 20
1449.2280458196
 11
1267.110272332
 21
1449.2280458196
  0
LINE
  5
275
100
AcDbEntity
  8
0
100
AcDbLine
 62
2
  6
CONTINUOUS
 10
1393.0453503989
 20
1449.2280458196
 11
1366.9804284659
 21
1449.2280458196
  0
INSERT
  5
276
100
AcDbEntity
  8
0
100
AcDbBlockReference
 62
2
  6
CONTINUOUS
  2
_FILLED
 10
1241.0453503989
 20
1449.2280458196
 41
16.0
 42
16.0
 43
16.0
 50
180.0
  0
INSERT
  5
277
100
AcDbEntity
  8
0
100
AcDbBlockReference
 62
2
  6
CONTINUOUS
  2
_FILLED
 10
1393.0453503989
 20
1449.2280458196
 41
16.0
 42
16.0
 43
16.0
  0
ENDBLK
  5
278
100
AcDbEntity
  8
0
  6
BYBLOCK
 62
0
100
AcDbBlockEnd
  0
BLOCK
  5
279
100
AcDbEntity
  8
0
100
AcDbBlockBegin
 62
2
  6
CONTINUOUS
  2
*D4
 70
65
 10
0.0
 20
0.0
  3
*D4
  1

  0
MTEXT
  5
27A
100
AcDbEntity
  8
0
100
AcDbMText
 62
2
  6
CONTINUOUS
  7
STANDARD
 71
2
 72
1
 10
1517.4357136467
 20
1079.8472390714
 30
0.0
 11
1.0
 21
0.0
 31
0.0
 73
2
 44
0.9
  1
462,0\P[18.19]
 40
18.288
 41
81.5821561338
  0
LINE
  5
27B
100
AcDbEntity
  8
0
100
AcDbLine
 62
2
  6
CONTINUOUS
 10
1385.7453503989
 20
766.8967604283
 11
1551.8097508214
 21
766.8967604283
  0
LINE
  5
27C
100
AcDbEntity
  8
0
100
AcDbLine
 62
2
  6
CONTINUOUS
 10
1405.7453503989
 20
1228.8967604283
 11
1551.8097508214
 21
1228.8967604283
  0
LINE
  5
27D
100
AcDbEntity
  8
0
100
AcDbLine
 62
2
  6
CONTINUOUS
 10
1526.4097508214
 20
766.8967604283
 11
1526.4097508214
 21
1020.0202817383
  0
LINE
  5
27E
100
AcDbEntity
  8
0
100
AcDbLine
 62
2
  6
CONTINUOUS
 10
1526.4097508214
 20
1228.8967604283
 11
1526.4097508214
 21
1088.9912390714
  0
INSERT
  5
27F
100
AcDbEntity
  8
0
100
AcDbBlockReference
 62
2
  6
CONTINUOUS
  2
_FILLED
 10
1526.4097508214
 20
766.8967604283
 41
16.0
 42
16.0
 43
16.0
 50
270.0
  0
INSERT
  5
280
100
AcDbEntity
  8
0
100
AcDbBlockReference
 62
2
  6
CONTINUOUS
  2
_FILLED
 10
1526.4097508214
 20
1228.8967604283
 41
16.0
 42
16.0
 43
16.0
 50
90.0
  0
ENDBLK
  5
281
100
AcDbEntity
  8
0
  6
BYBLOCK
 62
0
100
AcDbBlockEnd
  0
BLOCK
  5
282
100
AcDbEntity
  8
0
100
AcDbBlockBegin
 62
2
  6
CONTINUOUS
  2
*D5
 70
65
 10
0.0
 20
0.0
  3
*D5
  1

  0
MTEXT
  5
283
100
AcDbEntity
  8
0
100
AcDbMText
 62
2
  6
CONTINUOUS
  7
STANDARD
 71
2
 72
1
 10
1527.2330528377
 20
1672.2113222526
 30
0.0
 11
1.0
 21
0.0
 31
0.0
 73
2
 44
0.9
  1
288,8\P[11.37]
 40
18.288
 41
81.5821561338
  0
LINE
  5
284
100
AcDbEntity
  8
0
100
AcDbLine
 62
2
  6
CONTINUOUS
 10
1367.7453503989
 20
1480.7776618477
 11
1561.6070900124
 21
1480.7776618477
  0
LINE
  5
285
100
AcDbEntity
  8
0
100
AcDbLine
 62
2
  6
CONTINUOUS
 10
1332.3095546499
 20
1769.5867573405
 11
1561.6070900124
 21
1769.5867573405
  0
LINE
  5
286
100
AcDbEntity
  8
0
100
AcDbLine
 62
2
  6
CONTINUOUS
 10
1536.2070900124
 20
1480.7776618477
 11
1536.2070900124
 21
1612.3843105469
  0
LINE
  5
287
100
AcDbEntity
  8
0
100
AcDbLine
 62
2
  6
CONTINUOUS
 10
1536.2070900124
 20
1769.5867573405
 11
1536.2070900124
 21
1681.3553222526
  0
INSERT
  5
288
100
AcDbEntity
  8
0
100
AcDbBlockReference
 62
2
  6
CONTINUOUS
  2
_FILLED
 10
1536.2070900124
 20
1480.7776618477
 41
16.0
 42
16.0
 43
16.0
 50
270.0
  0
INSERT
  5
289
100
AcDbEntity
  8
0
100
AcDbBlockReference
 62
2
  6
CONTINUOUS
  2
_FILLED
 10
1536.2070900124
 20
1769.5867573405
 41
16.0
 42
16.0
 43
16.0
 50
90.0
  0
ENDBLK
  5
28A
100
AcDbEntity
  8
0
  6
BYBLOCK
 62
0
100
AcDbBlockEnd
  0
BLOCK
  5
28B
100
AcDbEntity
  8
0
100
AcDbBlockBegin
 62
2
  6
CONTINUOUS
  2
*D6
 70
65
 10
0.0
 20
0.0
  3
*D6
  1

  0
MTEXT
  5
28C
100
AcDbEntity
  8
0
100
AcDbMText
 62
2
  6
CONTINUOUS
  7
STANDARD
 71
2
 72
1
 10
1449.9538588309
 20
1574.1919652998
 30
0.0
 11
1.0
 21
0.0
 31
0.0
 73
2
 44
0.9
  1
135,0\P[5.31]
 40
18.288
 41
67.4412490706
  0
LINE
  5
28D
100
AcDbEntity
  8
0
100
AcDbLine
 62
2
  6
CONTINUOUS
 10
1253.7453503989
 20
1615.7467500317
 11
1477.2574424741
 21
1615.7467500317
  0
LINE
  5
28E
100
AcDbEntity
  8
0
100
AcDbLine
 62
2
  6
CONTINUOUS
 10
1367.7453503989
 20
1480.7776618477
 11
1477.2574424741
 21
1480.7776618477
  0
LINE
  5
28F
100
AcDbEntity
  8
0
100
AcDbLine
 62
2
  6
CONTINUOUS
 10
1451.8574424741
 20
1615.7467500317
 11
1451.8574424741
 21
1583.3359652998
  0
LINE
  5
290
100
AcDbEntity
  8
0
100
AcDbLine
 62
2
  6
CONTINUOUS
 10
1451.8574424741
 20
1480.7776618477
 11
1451.8574424741
 21
1514.3650780273
  0
INSERT
  5
291
100
AcDbEntity
  8
0
100
AcDbBlockReference
 62
2
  6
CONTINUOUS
  2
_FILLED
 10
1451.8574424741
 20
1615.7467500317
 41
16.0
 42
16.0
 43
16.0
 50
90.0
  0
INSERT
  5
292
100
AcDbEntity
  8
0
100
AcDbBlockReference
 62
2
  6
CONTINUOUS
  2
_FILLED
 10
1451.8574424741
 20
1480.7776618477
 41
16.0
 42
16.0
 43
16.0
 50
270.0
  0
ENDBLK
  5
293
100
AcDbEntity
  8
0
  6
BYBLOCK
 62
0
100
AcDbBlockEnd
  0
BLOCK
  5
294
100
AcDbEntity
  8
0
100
AcDbBlockBegin
 62
2
  6
CONTINUOUS
  2
*D7
 70
65
 10
0.0
 20
0.0
  3
*D7
  1

  0
MTEXT
  5
295
100
AcDbEntity
  8
0
100
AcDbMText
 62
2
  6
CONTINUOUS
  7
STANDARD
 71
2
 72
1
 10
1490.084516346
 20
483.2353468602
 30
0.0
 11
1.0
 21
0.0
 31
0.0
 73
2
 44
0.9
  1
134,8\P[5.31]
 40
18.288
 41
67.4412490706
  0
LINE
  5
296
100
AcDbEntity
  8
0
100
AcDbLine
 62
2
  6
CONTINUOUS
 10
1288.0653503989
 20
391.5412835708
 11
1517.3880999891
 21
391.5412835708
  0
LINE
  5
297
100
AcDbEntity
  8
0
100
AcDbLine
 62
2
  6
CONTINUOUS
 10
1367.7453503989
 20
526.3103717548
 11
1517.3880999891
 21
526.3103717548
  0
LINE
  5
298
100
AcDbEntity
  8
0
100
AcDbLine
 62
2
  6
CONTINUOUS
 10
1491.9880999891
 20
391.5412835708
 11
1491.9880999891
 21
423.4084098877
  0
LINE
  5
299
100
AcDbEntity
  8
0
100
AcDbLine
 62
2
  6
CONTINUOUS
 10
1491.9880999891
 20
526.3103717548
 11
1491.9880999891
 21
492.3793468602
  0
INSERT
  5
29A
100
AcDbEntity
  8
0
100
AcDbBlockReference
 62
2
  6
CONTINUOUS
  2
_FILLED
 10
1491.9880999891
 20
391.5412835708
 41
16.0
 42
16.0
 43
16.0
 50
270.0
  0
INSERT
  5
29B
100
AcDbEntity
  8
0
100
AcDbBlockReference
 62
2
  6
CONTINUOUS
  2
_FILLED
 10
1491.9880999891
 20
526.3103717548
 41
16.0
 42
16.0
 43
16.0
 50
90.0
  0
ENDBLK
  5
29C
100
AcDbEntity
  8
0
  6
BYBLOCK
 62
0
100
AcDbBlockEnd
  0
BLOCK
  5
29D
100
AcDbEntity
  8
0
100
AcDbBlockBegin
 62
2
  6
CONTINUOUS
  2
*D8
 70
65
 10
0.0
 20
0.0
  3
*D8
  1

  0
MTEXT
  5
29E
100
AcDbEntity
  8
0
100
AcDbMText
 62
2
  6
CONTINUOUS
  7
STANDARD
 71
2
 72
1
 10
1313.1417667558
 20
617.3411766423
 30
0.0
 11
1.0
 21
0.0
 31
0.0
 73
2
 44
0.9
  1
156,0\P[6.14]
 40
18.288
 41
67.4412490706
  0
LINE
  5
29F
100
AcDbEntity
  8
0
100
AcDbLine
 62
2
  6
CONTINUOUS
 10
1237.0453503989
 20
442.5612835708
 11
1237.0453503989
 21
633.5971766423
  0
LINE
  5
2A0
100
AcDbEntity
  8
0
100
AcDbLine
 62
2
  6
CONTINUOUS
 10
1393.0453503989
 20
504.2412835708
 11
1393.0453503989
 21
633.5971766423
  0
LINE
  5
2A1
100
AcDbEntity
  8
0
100
AcDbLine
 62
2
  6
CONTINUOUS
 10
1237.0453503989
 20
608.1971766423
 11
1272.1807258636
 21
608.1971766423
  0
LINE
  5
2A2
100
AcDbEntity
  8
0
100
AcDbLine
 62
2
  6
CONTINUOUS
 10
1393.0453503989
 20
608.1971766423
 11
1357.9099749343
 21
608.1971766423
  0
INSERT
  5
2A3
100
AcDbEntity
  8
0
100
AcDbBlockReference
 62
2
  6
CONTINUOUS
  2
_FILLED
 10
1237.0453503989
 20
608.1971766423
 41
16.0
 42
16.0
 43
16.0
 50
180.0
  0
INSERT
  5
2A4
100
AcDbEntity
  8
0
100
AcDbBlockReference
 62
2
  6
CONTINUOUS
  2
_FILLED
 10
1393.0453503989
 20
608.1971766423
 41
16.0
 42
16.0
 43
16.0
  0
ENDBLK
  5
2A5
100
AcDbEntity
  8
0
  6
BYBLOCK
 62
0
100
AcDbBlockEnd
  0
ENDSEC
  0
SECTION
  2
ENTITIES
  0
MTEXT
  5
2A6
100
AcDbEntity
  8
0
100
AcDbMText
 62
2
  6
CONTINUOUS
  7
TEXTSTYLE_2
 71
1
 72
1
 10
46.1422896613
 20
347.0362191475
 30
0.0
 11
1.0
 21
0.0
 31
0.0
 73
2
 44
1.0
  1
A
 40
19.05
 41
19.6165427509
  0
MTEXT
  5
2A7
100
AcDbEntity
  8
0
100
AcDbMText
 62
2
  6
CONTINUOUS
  7
TEXTSTYLE_2
 71
1
 72
1
 10
46.0670300861
 20
870.0133720483
 30
0.0
 11
1.0
 21
0.0
 31
0.0
 73
2
 44
1.0
  1
B
 40
19.05
 41
15.2258364312
  0
MTEXT
  5
2A8
100
AcDbEntity
  8
0
100
AcDbMText
 62
2
  6
CONTINUOUS
  7
TEXTSTYLE_2
 71
1
 72
1
 10
46.0706758837
 20
1393.0868403219
 30
0.0
 11
1.0
 21
0.0
 31
0.0
 73
2
 44
1.0
  1
C
 40
19.05
 41
21.5994423792
  0
MTEXT
  5
2A9
100
AcDbEntity
  8
0
100
AcDbMText
 62
2
  6
CONTINUOUS
  7
TEXTSTYLE_2
 71
1
 72
1
 10
46.0314209061
 20
1916.3612198155
 30
0.0
 11
1.0
 21
0.0
 31
0.0
 73
2
 44
1.0
  1
D
 40
19.05
 41
19.7581784387
  0
MTEXT
  5
2AA
100
AcDbEntity
  8
0
100
AcDbMText
 62
2
  6
CONTINUOUS
  7
TEXTSTYLE_2
 71
1
 72
1
 10
2917.6661184528
 20
94.5332098548
 30
0.0
 11
1.0
 21
0.0
 31
0.0
 73
2
 44
1.0000002
  1
SCALE:  
 40
10.583336
 41
57.2444382156
  0
MTEXT
  5
2AB
100
AcDbEntity
  8
0
100
AcDbMText
 62
2
  6
CONTINUOUS
  7
TEXTSTYLE_2
 71
1
 72
1
 10
2918.5418202065
 20
148.5514984576
 30
0.0
 11
1.0
 21
0.0
 31
0.0
 73
2
 44
1.0000002
  1
SIZE
 40
10.583336
 41
25.6911464981
  0
MTEXT
  5
2AC
100
AcDbEntity
  8
0
100
AcDbMText
 62
2
  6
CONTINUOUS
  7
TEXTSTYLE_2
 71
1
 72
1
 10
3012.1482135343
 20
93.7754319029
 30
0.0
 11
1.0
 21
0.0
 31
0.0
 73
2
 44
1.0000002
  1
CAD FILE:                   
 40
10.656
 41
146.014929368
  0
MTEXT
  5
2AD
100
AcDbEntity
  8
0
100
AcDbMText
 62
2
  6
CONTINUOUS
  7
TEXTSTYLE_2
 71
1
 72
1
 10
3051.7465721336
 20
148.1821387249
 30
0.0
 11
1.0
 21
0.0
 31
0.0
 73
2
 44
1.0000002
  1
DWG. NO.
 40
10.583336
 41
74.004665487
  0
MTEXT
  5
2AE
100
AcDbEntity
  8
0
100
AcDbMText
 62
2
  6
CONTINUOUS
  7
TEXTSTYLE_2
 71
1
 72
1
 10
2924.9415006765
 20
125.2290941671
 30
0.0
 11
1.0
 21
0.0
 31
0.0
 73
2
 44
1.0000002
  1
B
 40
14.816664
 41
11.8423150929
  0
MTEXT
  5
2AF
100
AcDbEntity
  8
0
100
AcDbMText
 62
2
  6
CONTINUOUS
  7
TEXTSTYLE_2
 71
1
 72
1
 10
3248.9190273295
 20
94.1676672306
 30
0.0
 11
1.0
 21
0.0
 31
0.0
 73
2
 44
1.0000002
  1
SHEET:
 40
10.583336
 41
43.6316714647
  0
MTEXT
  5
2B0
100
AcDbEntity
  8
0
100
AcDbMText
 62
2
  6
CONTINUOUS
  7
TEXTSTYLE_2
 71
1
 72
1
 10
2642.7447744993
 20
283.6153047843
 30
0.0
 11
1.0
 21
0.0
 31
0.0
 73
2
 44
1.0000002
  1
DRAWN BY
 40
10.583336
 41
77.1914692639
  0
MTEXT
  5
2B1
100
AcDbEntity
  8
0
100
AcDbMText
 62
2
  6
CONTINUOUS
  7
TEXTSTYLE_2
 71
1
 72
1
 10
2643.8183216357
 20
229.9382881359
 30
0.0
 11
1.0
 21
0.0
 31
0.0
 73
2
 44
1.0000002
  1
MECH ENGINEER
 40
10.583336
 41
118.3445155688
  0
MTEXT
  5
2B2
100
AcDbEntity
  8
0
100
AcDbMText
 62
2
  6
CONTINUOUS
  7
TEXTSTYLE_2
 71
1
 72
1
 10
2643.8183216357
 20
176.2224187999
 30
0.0
 11
1.0
 21
0.0
 31
0.0
 73
2
 44
1.0000002
  1
TECH DIRECTOR
 40
10.583336
 41
111.6561619628
  0
MTEXT
  5
2B3
100
AcDbEntity
  8
0
100
AcDbMText
 62
2
  6
CONTINUOUS
  7
TEXTSTYLE_2
 71
1
 72
1
 10
2643.8183216357
 20
121.6428096559
 30
0.0
 11
1.0
 21
0.0
 31
0.0
 73
2
 44
1.0000002
  1
MFG ENGINEER
 40
10.583336
 41
108.3906716729
  0
MTEXT
  5
2B4
100
AcDbEntity
  8
0
100
AcDbMText
 62
2
  6
CONTINUOUS
  7
TEXTSTYLE_2
 71
1
 72
1
 10
2398.8013379275
 20
298.7141390561
 30
0.0
 11
1.0
 21
0.0
 31
0.0
 73
2
 44
1.0000002
  1
DECIMALS                    ANGLES
 40
10.583336
 41
211.430660461
  0
MTEXT
  5
2B5
100
AcDbEntity
  8
0
100
AcDbMText
 62
2
  6
CONTINUOUS
  7
TEXTSTYLE_2
 71
1
 72
1
 10
2371.910236377
 20
216.6302462747
 30
0.0
 11
1.0
 21
0.0
 31
0.0
 73
2
 44
1.0000002
  1
MATERIAL
 40
10.583336
 41
68.6933258587
  0
MTEXT
  5
2B6
100
AcDbEntity
  8
0
100
AcDbMText
 62
2
  6
CONTINUOUS
  7
TEXTSTYLE_2
 71
1
 72
1
 10
2372.636241709
 20
179.6004322594
 30
0.0
 11
1.0
 21
0.0
 31
0.0
 73
2
 44
1.0000002
  1
FINISH
 40
10.583336
 41
42.175970974
  0
MTEXT
  5
2B7
100
AcDbEntity
  8
0
100
AcDbMText
 62
2
  6
CONTINUOUS
  7
TEXTSTYLE_2
 71
1
 72
1
 10
2386.4644317727
 20
137.5122319372
 30
0.0
 11
1.0
 21
0.0
 31
0.0
 73
2
 44
1.0000002
  1
DO  NOT  SCALE  DRAWING
 40
12.7
 41
234.5486988848
  0
MTEXT
  5
2B8
100
AcDbEntity
  8
0
100
AcDbMText
 62
2
  6
CONTINUOUS
  7
TEXTSTYLE_2
 71
1
 72
1
 10
3169.7190420717
 20
70.1680284291
 30
0.0
 11
1.0
 21
0.0
 31
0.0
 73
2
 44
1.0
  1
1
 40
19.05
 41
14.7301115242
  0
MTEXT
  5
2B9
100
AcDbEntity
  8
0
100
AcDbMText
 62
2
  6
CONTINUOUS
  7
TEXTSTYLE_2
 71
1
 72
1
 10
2755.6064902453
 20
70.8297358291
 30
0.0
 11
1.0
 21
0.0
 31
0.0
 73
2
 44
1.0
  1
2
 40
19.05
 41
14.7301115242
  0
MTEXT
  5
2BA
100
AcDbEntity
  8
0
100
AcDbMText
 62
2
  6
CONTINUOUS
  7
TEXTSTYLE_2
 71
1
 72
1
 10
2341.2200296333
 20
70.4078522331
 30
0.0
 11
1.0
 21
0.0
 31
0.0
 73
2
 44
1.0
  1
3
 40
19.05
 41
14.7301115242
  0
MTEXT
  5
2BB
100
AcDbEntity
  8
0
100
AcDbMText
 62
2
  6
CONTINUOUS
  7
TEXTSTYLE_2
 71
1
 72
1
 10
1927.4976001157
 20
70.6547791563
 30
0.0
 11
1.0
 21
0.0
 31
0.0
 73
2
 44
1.0
  1
4
 40
19.05
 41
14.7301115242
  0
MTEXT
  5
2BC
100
AcDbEntity
  8
0
100
AcDbMText
 62
2
  6
CONTINUOUS
  7
TEXTSTYLE_2
 71
1
 72
1
 10
1513.8168043877
 20
70.4446454899
 30
0.0
 11
1.0
 21
0.0
 31
0.0
 73
2
 44
1.0
  1
5
 40
19.05
 41
14.7301115242
  0
MTEXT
  5
2BD
100
AcDbEntity
  8
0
100
AcDbMText
 62
2
  6
CONTINUOUS
  7
TEXTSTYLE_2
 71
1
 72
1
 10
1099.7468574213
 20
71.0099714915
 30
0.0
 11
1.0
 21
0.0
 31
0.0
 73
2
 44
1.0
  1
6
 40
19.05
 41
14.7301115242
  0
MTEXT
  5
2BE
100
AcDbEntity
  8
0
100
AcDbMText
 62
2
  6
CONTINUOUS
  7
TEXTSTYLE_2
 71
1
 72
1
 10
685.5881223709
 20
70.6842592307
 30
0.0
 11
1.0
 21
0.0
 31
0.0
 73
2
 44
1.0
  1
7
 40
19.05
 41
14.7301115242
  0
MTEXT
  5
2BF
100
AcDbEntity
  8
0
100
AcDbMText
 62
2
  6
CONTINUOUS
  7
TEXTSTYLE_2
 71
1
 72
1
 10
271.2574717245
 20
70.3951255195
 30
0.0
 11
1.0
 21
0.0
 31
0.0
 73
2
 44
1.0
  1
8
 40
19.05
 41
14.7301115242
  0
MTEXT
  5
2C0
100
AcDbEntity
  8
0
100
AcDbMText
 62
2
  6
CONTINUOUS
  7
TEXTSTYLE_2
 71
1
 72
1
 10
277.0098145764
 20
2188.9479803641
 30
0.0
 11
1.0
 21
0.0
 31
0.0
 73
2
 44
1.0000002
  1
8
 40
19.05
 41
14.7301115242
  0
MTEXT
  5
2C1
100
AcDbEntity
  8
0
100
AcDbMText
 62
2
  6
CONTINUOUS
  7
TEXTSTYLE_2
 71
1
 72
1
 10
2371.3004445988
 20
99.2676007193
 30
0.0
 11
1.0
 21
0.0
 31
0.0
 73
2
 44
1.0000002
  1
PROJECTION SYMBOL
 40
12.56
 41
181.3028996283
  0
MTEXT
  5
2C2
100
AcDbEntity
  8
0
100
AcDbMText
 62
2
  6
CONTINUOUS
  7
TEXTSTYLE_2
 71
1
 72
1
 10
2729.2444615678
 20
305.9381132319
 30
0.0
 11
1.0
 21
0.0
 31
0.0
 73
2
 44
1.0000002
  1
APPROVALS
 40
10.583336
 41
85.5715828996
  0
MTEXT
  5
2C3
100
AcDbEntity
  8
0
100
AcDbMText
 62
2
  6
CONTINUOUS
  7
TEXTSTYLE_2
 71
1
 72
1
 10
686.2524549445
 20
2189.1268215635
 30
0.0
 11
1.0
 21
0.0
 31
0.0
 73
2
 44
1.0000002
  1
7
 40
19.05
 41
14.7301115242
  0
MTEXT
  5
2C4
100
AcDbEntity
  8
0
100
AcDbMText
 62
2
  6
CONTINUOUS
  7
TEXTSTYLE_2
 71
1
 72
1
 10
1513.8586447757
 20
2188.3274984227
 30
0.0
 11
1.0
 21
0.0
 31
0.0
 73
2
 44
1.0
  1
5
 40
19.05
 41
14.7301115242
  0
MTEXT
  5
2C5
100
AcDbEntity
  8
0
100
AcDbMText
 62
2
  6
CONTINUOUS
  7
TEXTSTYLE_2
 71
1
 72
1
 10
1927.8104302645
 20
2188.3955656579
 30
0.0
 11
1.0
 21
0.0
 31
0.0
 73
2
 44
1.0
  1
4
 40
19.05
 41
14.7301115242
  0
MTEXT
  5
2C6
100
AcDbEntity
  8
0
100
AcDbMText
 62
2
  6
CONTINUOUS
  7
TEXTSTYLE_2
 71
1
 72
1
 10
2341.5971560645
 20
2188.3463969659
 30
0.0
 11
1.0
 21
0.0
 31
0.0
 73
2
 44
1.0
  1
3
 40
19.05
 41
14.7301115242
  0
MTEXT
  5
2C7
100
AcDbEntity
  8
0
100
AcDbMText
 62
2
  6
CONTINUOUS
  7
TEXTSTYLE_2
 71
1
 72
1
 10
2755.7323609741
 20
2188.7685032475
 30
0.0
 11
1.0
 21
0.0
 31
0.0
 73
2
 44
1.0
  1
2
 40
19.05
 41
14.7301115242
  0
MTEXT
  5
2C8
100
AcDbEntity
  8
0
100
AcDbMText
 62
2
  6
CONTINUOUS
  7
TEXTSTYLE_2
 71
1
 72
1
 10
3170.4849130933
 20
2188.9341988755
 30
0.0
 11
1.0
 21
0.0
 31
0.0
 73
2
 44
1.0
  1
1
 40
19.05
 41
14.7301115242
  0
MTEXT
  5
2C9
100
AcDbEntity
  8
0
100
AcDbMText
 62
2
  6
CONTINUOUS
  7
TEXTSTYLE_2
 71
1
 72
1
 10
3390.7153003757
 20
1915.7983048283
 30
0.0
 11
1.0
 21
0.0
 31
0.0
 73
2
 44
1.0
  1
D
 40
19.05
 41
19.7581784387
  0
MTEXT
  5
2CA
100
AcDbEntity
  8
0
100
AcDbMText
 62
2
  6
CONTINUOUS
  7
TEXTSTYLE_2
 71
1
 72
1
 10
3388.6074243117
 20
1392.9626197867
 30
0.0
 11
1.0
 21
0.0
 31
0.0
 73
2
 44
1.0
  1
C
 40
19.05
 41
21.5994423792
  0
MTEXT
  5
2CB
100
AcDbEntity
  8
0
100
AcDbMText
 62
2
  6
CONTINUOUS
  7
TEXTSTYLE_2
 71
1
 72
1
 10
3394.4220460037
 20
869.2428970811
 30
0.0
 11
1.0
 21
0.0
 31
0.0
 73
2
 44
1.0
  1
B
 40
19.05
 41
15.2258364312
  0
MTEXT
  5
2CC
100
AcDbEntity
  8
0
100
AcDbMText
 62
2
  6
CONTINUOUS
  7
TEXTSTYLE_2
 71
1
 72
1
 10
3390.2390657349
 20
346.3237354235
 30
0.0
 11
1.0
 21
0.0
 31
0.0
 73
2
 44
1.0
  1
A
 40
19.05
 41
19.6165427509
  0
MTEXT
  5
2CD
100
AcDbEntity
  8
0
100
AcDbMText
 62
2
  6
CONTINUOUS
  7
TEXTSTYLE_2
 71
1
 72
1
 10
2373.237673354
 20
371.9905015836
 30
0.0
 11
1.0
 21
0.0
 31
0.0
 73
2
 44
1.2
  1
UNLESS  OTHERWISE  SPECIFIED\PDIMENSIONS ARE IN MM [IN]\PTOLERANCES ARE:
 40
12.7
 41
256.7382899628
  0
MTEXT
  5
2CE
100
AcDbEntity
  8
0
100
AcDbMText
 62
2
  6
CONTINUOUS
  7
TEXTSTYLE_2
 71
1
 72
1
 10
2649.495260769
 20
365.9794258478
 30
0.0
 11
1.0
 21
0.0
 31
0.0
 73
2
 44
1.0000002
  1
CAD GENERATED DRAWING\PDO NOT MANUALLY UPDATE
 40
12.7
 41
238.656133829
  0
MTEXT
  5
2CF
100
AcDbEntity
  8
0
100
AcDbMText
 62
2
  6
CONTINUOUS
  7
TEXTSTYLE_2
 71
1
 72
1
 10
3329.0121535107
 20
148.5433329174
 30
0.0
 11
1.0
 21
0.0
 31
0.0
 73
2
 44
1.0000002
  1
REV
 40
10.583336
 41
27.2255335019
  0
MTEXT
  5
2D0
100
AcDbEntity
  8
0
100
AcDbMText
 62
2
  6
CONTINUOUS
  7
TEXTSTYLE_2
 71
1
 72
1
 10
1099.7706913637
 20
2188.6241504779
 30
0.0
 11
1.0
 21
0.0
 31
0.0
 73
2
 44
1.0
  1
6
 40
19.05
 41
14.7301115242
  0
MTEXT
  5
2D1
100
AcDbEntity
  8
0
100
AcDbMText
 62
2
  6
CONTINUOUS
  7
TEXTSTYLE_2
 71
1
 72
1
 10
2952.1653628928
 20
147.6604394467
 30
0.0
 11
1.0
 21
0.0
 31
0.0
 73
2
 44
1.0000002
  1
CAGE CODE
 40
10.583336
 41
91.4730713755
  0
MTEXT
  5
2D2
100
AcDbEntity
  8
0
100
AcDbMText
 62
2
  6
CONTINUOUS
  7
TEXTSTYLE_2
 71
1
 72
1
 10
2965.5815006765
 20
125.2290941671
 30
0.0
 11
1.0
 21
0.0
 31
0.0
 73
2
 44
1.0000002
  1
00PW4
 40
14.816664
 41
66.4271255911
  0
MTEXT
  5
2D3
100
AcDbEntity
  8
0
100
AcDbMText
 62
2
  6
CONTINUOUS
  7
TEXTSTYLE_2
 71
1
 72
1
 10
3126.7453204661
 20
343.3134970692
 30
0.0
 11
1.0
 21
0.0
 31
0.0
 73
2
 44
1.0000002
  1
1675 MACARTHUR BOULEVARD\PCOSTA MESA, CA 92626 USA
 40
12.192
 41
252.4514498141
  0
MTEXT
  5
2D4
100
AcDbEntity
  8
0
100
AcDbMText
 62
2
  6
CONTINUOUS
  7
TEXTSTYLE_2
 71
1
 72
1
 10
3128.4654375948
 20
372.0562665651
 30
0.0
 11
1.0
 21
0.0
 31
0.0
 73
2
 44
1.0000002
  1
QSC, LLC
 40
20.32
 41
126.7544981413
  0
MTEXT
  5
2D5
100
AcDbEntity
  8
0
100
AcDbMText
 62
2
  6
CONTINUOUS
  7
TEXTSTYLE_2
 71
3
 72
1
 10
3381.3175679885
 20
59.3181024067
 30
0.0
 11
1.0
 21
0.0
 31
0.0
 73
2
 44
1.0000002
  1
Form: QMS100206 Rev C
 40
8.0
 41
130.8847583643
  0
MTEXT
  5
2D6
100
AcDbEntity
  8
0
100
AcDbMText
 62
2
  6
CONTINUOUS
  7
TEXTSTYLE_2
 71
1
 72
1
 10
76.8541822189
 20
2159.9261770569
 30
0.0
 11
1.0
 21
0.0
 31
0.0
 73
2
 44
1.0000002
  3
THIS DOCUMENT CONTAINS CONFIDENTIAL OR PROPRIETARY INFORMATION WHICH \PIS THE PROPERTY OF QSC, LLC, THAT MAY NOT BE DISCLOSED, REPRODUCED OR \PUSED WITHOUT EXPRESS WRITTEN CONSENT FROM QSC, LLC. NO PORTION OF THIS \PDOCUMENT MAY BE REPRODUCED,REDISTR
  1
UBUTED, OR OTHERWISE DISCLOSED TO \PANY THIRD PARTY WITHOUT QSC'S WRITTEN PERMISSION.
 40
10.583336
 41
588.6931470929
  0
DIMENSION
  5
2D7
100
AcDbEntity
  8
0
100
AcDbDimension
 62
2
  6
CONTINUOUS
  2
*D0
 10
2014.6661091359
 20
782.4530104283
 11
2148.6687722381
 21
810.0223465406
 70
162
 71
2
 72
2
 41
0.9
 42
0.5235987756
  3
DIMSTYLE_1
100
AcDb2LineAngularDimension
 13
1997.1681490647
 23
766.8967604283
 14
1998.8343937607
 24
766.8967604283
 15
2013.2230989003
 25
781.6198880803
 16
2148.6687722381
 26
810.0223465406
  0
DIMENSION
  5
2D8
100
AcDbEntity
  8
0
100
AcDbDimension
 62
2
  6
CONTINUOUS
  2
*D1
 10
1442.4528743189
 20
962.8967604283
 11
1442.4528743189
 21
881.8376817142
 70
160
 71
2
 72
2
 41
0.9
 42
196.0
  1
<>\P[]
  3
DIMSTYLE_2
100
AcDbAlignedDimension
 13
1384.1578503989
 23
766.8967604283
 14
1252.1578503989
 24
962.8967604283
 50
90.0
100
AcDbRotatedDimension
  0
DIMENSION
  5
2D9
100
AcDbEntity
  8
0
100
AcDbDimension
 62
2
  6
CONTINUOUS
  2
*D2
 10
1393.0453503989
 20
1350.1144287324
 11
1246.7691570684
 21
1336.3984287324
 70
160
 71
2
 72
2
 41
0.9
 42
312.0
  1
<>\P[]
  3
DIMSTYLE_2
100
AcDbAlignedDimension
 13
1081.0453503989
 23
1504.4342500317
 14
1393.0453503989
 24
1504.4342500317
100
AcDbRotatedDimension
  0
DIMENSION
  5
2DA
100
AcDbEntity
  8
0
100
AcDbDimension
 62
2
  6
CONTINUOUS
  2
*D3
 10
1393.0453503989
 20
1449.2280458196
 11
1317.0453503989
 21
1435.5120458196
 70
160
 71
2
 72
2
 41
0.9
 42
152.0
  1
<>\P[]
  3
DIMSTYLE_3
100
AcDbAlignedDimension
 13
1241.0453503989
 23
1414.9978333314
 14
1393.0453503989
 24
1476.2155458196
100
AcDbRotatedDimension
  0
DIMENSION
  5
2DB
100
AcDbEntity
  8
0
100
AcDbDimension
 62
2
  6
CONTINUOUS
  2
*D4
 10
1526.4097508214
 20
1228.8967604283
 11
1526.4097508214
 21
1056.9872390714
 70
160
 71
2
 72
2
 41
0.9
 42
462.0
  1
<>\P[]
  3
DIMSTYLE_2
100
AcDbAlignedDimension
 13
1384.1578503989
 23
766.8967604283
 14
1404.1578503989
 24
1228.8967604283
 50
90.0
100
AcDbRotatedDimension
  0
DIMENSION
  5
2DC
100
AcDbEntity
  8
0
100
AcDbDimension
 62
2
  6
CONTINUOUS
  2
*D5
 10
1536.2070900124
 20
1769.5867573405
 11
1536.2070900124
 21
1649.3513222526
 70
160
 71
2
 72
2
 41
0.9
 42
288.8090954928
  1
<>\P[]
  3
DIMSTYLE_2
100
AcDbAlignedDimension
 13
1366.1578503989
 23
1480.7776618477
 14
1330.7220546499
 24
1769.5867573405
 50
90.0
100
AcDbRotatedDimension
  0
DIMENSION
  5
2DD
100
AcDbEntity
  8
0
100
AcDbDimension
 62
2
  6
CONTINUOUS
  2
*D6
 10
1451.8574424741
 20
1480.7776618477
 11
1451.8574424741
 21
1551.3319652998
 70
160
 71
2
 72
2
 41
0.9
 42
134.969088184
  1
<>\P[]
  3
DIMSTYLE_2
100
AcDbAlignedDimension
 13
1252.1578503989
 23
1615.7467500317
 14
1366.1578503989
 24
1480.7776618477
 50
270.0
100
AcDbRotatedDimension
  0
DIMENSION
  5
2DE
100
AcDbEntity
  8
0
100
AcDbDimension
 62
2
  6
CONTINUOUS
  2
*D7
 10
1491.9880999891
 20
526.3103717548
 11
1491.9880999891
 21
460.3753468602
 70
160
 71
2
 72
2
 41
0.9
 42
134.769088184
  1
<>\P[]
  3
DIMSTYLE_2
100
AcDbAlignedDimension
 13
1286.4778503989
 23
391.5412835708
 14
1366.1578503989
 24
526.3103717548
 50
90.0
100
AcDbRotatedDimension
  0
DIMENSION
  5
2DF
100
AcDbEntity
  8
0
100
AcDbDimension
 62
2
  6
CONTINUOUS
  2
*D8
 10
1393.0453503989
 20
608.1971766423
 11
1315.0453503989
 21
594.4811766423
 70
160
 71
2
 72
2
 41
0.9
 42
156.0
  1
<>\P[]
  3
DIMSTYLE_2
100
AcDbAlignedDimension
 13
1237.0453503989
 23
440.9737835708
 14
1393.0453503989
 24
502.6537835708
100
AcDbRotatedDimension
  0
LINE
  5
2E0
100
AcDbEntity
  8
0
100
AcDbLine
 62
2
  6
CONTINUOUS
 10
2912.9646030407
 20
304.121305865
 11
3384.1646030407
 21
304.121305865
  0
LINE
  5
2E1
100
AcDbEntity
  8
0
100
AcDbLine
 62
2
  6
CONTINUOUS
 10
2912.9646030407
 20
304.121305865
 11
2912.9646030407
 21
151.246305865
  0
LINE
  5
2E2
100
AcDbEntity
  8
0
100
AcDbLine
 62
2
  6
CONTINUOUS
 10
2912.9646030407
 20
151.246305865
 11
3384.1646030407
 21
151.246305865
  0
LINE
  5
2E3
100
AcDbEntity
  8
0
100
AcDbLine
 62
2
  6
CONTINUOUS
 10
3384.1646030407
 20
304.121305865
 11
3384.1646030407
 21
151.246305865
  0
MTEXT
  5
2E4
100
AcDbEntity
  8
0
100
AcDbMText
 62
2
  6
CONTINUOUS
  7
TEXTSTYLE_2
 71
2
 72
1
 10
3148.5646030407
 20
278.483805865
 30
0.0
 11
1.0
 21
0.0
 31
0.0
 73
2
 44
0.9
  1
LOUDSPEAKER, CB10, \P10-INCH COMPACT \PRECHARGEABLE
 40
25.4
 41
369.5747211896
  0
LINE
  5
2E5
100
AcDbEntity
  8
0
100
AcDbLine
 62
2
  6
CONTINUOUS
 10
3300.1284106175
 20
151.180170661
 11
3383.8284106175
 21
151.180170661
  0
LINE
  5
2E6
100
AcDbEntity
  8
0
100
AcDbLine
 62
2
  6
CONTINUOUS
 10
3300.1284106175
 20
151.180170661
 11
3300.1284106175
 21
101.180170661
  0
LINE
  5
2E7
100
AcDbEntity
  8
0
100
AcDbLine
 62
2
  6
CONTINUOUS
 10
3300.1284106175
 20
101.180170661
 11
3383.8284106175
 21
101.180170661
  0
LINE
  5
2E8
100
AcDbEntity
  8
0
100
AcDbLine
 62
2
  6
CONTINUOUS
 10
3383.8284106175
 20
151.180170661
 11
3383.8284106175
 21
101.180170661
  0
MTEXT
  5
2E9
100
AcDbEntity
  8
0
100
AcDbMText
 62
2
  6
CONTINUOUS
  7
TEXTSTYLE_2
 71
2
 72
1
 10
3341.9784106175
 20
131.805170661
 30
0.0
 11
1.0
 21
0.0
 31
0.0
 73
2
 44
0.9
  1
A1
 40
25.4
 41
45.7955390335
  0
LINE
  5
2EA
100
AcDbEntity
  8
0
100
AcDbLine
 62
2
  6
CONTINUOUS
 10
3046.8245911202
 20
151.0243736665
 11
3298.8245911202
 21
151.0243736665
  0
LINE
  5
2EB
100
AcDbEntity
  8
0
100
AcDbLine
 62
2
  6
CONTINUOUS
 10
3046.8245911202
 20
151.0243736665
 11
3046.8245911202
 21
101.1493736665
  0
LINE
  5
2EC
100
AcDbEntity
  8
0
100
AcDbLine
 62
2
  6
CONTINUOUS
 10
3046.8245911202
 20
101.1493736665
 11
3298.8245911202
 21
101.1493736665
  0
LINE
  5
2ED
100
AcDbEntity
  8
0
100
AcDbLine
 62
2
  6
CONTINUOUS
 10
3298.8245911202
 20
151.0243736665
 11
3298.8245911202
 21
101.1493736665
  0
MTEXT
  5
2EE
100
AcDbEntity
  8
0
100
AcDbMText
 62
2
  6
CONTINUOUS
  7
TEXTSTYLE_2
 71
2
 72
1
 10
3172.8245911202
 20
133.7743736665
 30
0.0
 11
1.0
 21
0.0
 31
0.0
 73
2
 44
0.9
  1
FG-901639-2D
 40
25.4
 41
235.492936803
  0
LINE
  5
2EF
100
AcDbEntity
  8
0
100
AcDbLine
 62
2
  6
CONTINUOUS
 10
2367.7533040004
 20
221.131370612
 11
2635.7533040004
 21
221.131370612
  0
LINE
  5
2F0
100
AcDbEntity
  8
0
100
AcDbLine
 62
2
  6
CONTINUOUS
 10
2367.7533040004
 20
221.131370612
 11
2367.7533040004
 21
184.318870612
  0
LINE
  5
2F1
100
AcDbEntity
  8
0
100
AcDbLine
 62
2
  6
CONTINUOUS
 10
2367.7533040004
 20
184.318870612
 11
2635.7533040004
 21
184.318870612
  0
LINE
  5
2F2
100
AcDbEntity
  8
0
100
AcDbLine
 62
2
  6
CONTINUOUS
 10
2635.7533040004
 20
221.131370612
 11
2635.7533040004
 21
184.318870612
  0
MTEXT
  5
2F3
100
AcDbEntity
  8
0
100
AcDbMText
 62
2
  6
CONTINUOUS
  7
TEXTSTYLE_2
 71
2
 72
1
 10
2528.5533040004
 20
211.869120612
 30
0.0
 11
1.0
 21
0.0
 31
0.0
 73
2
 44
0.9
  1
N/A
 40
18.288
 41
48.8133234201
  0
LINE
  5
2F4
100
AcDbEntity
  8
0
100
AcDbLine
 62
2
  6
CONTINUOUS
 10
2367.9207607637
 20
183.8936992446
 11
2635.9207607637
 21
183.8936992446
  0
LINE
  5
2F5
100
AcDbEntity
  8
0
100
AcDbLine
 62
2
  6
CONTINUOUS
 10
2367.9207607637
 20
183.8936992446
 11
2367.9207607637
 21
147.0811992446
  0
LINE
  5
2F6
100
AcDbEntity
  8
0
100
AcDbLine
 62
2
  6
CONTINUOUS
 10
2367.9207607637
 20
147.0811992446
 11
2635.9207607637
 21
147.0811992446
  0
LINE
  5
2F7
100
AcDbEntity
  8
0
100
AcDbLine
 62
2
  6
CONTINUOUS
 10
2635.9207607637
 20
183.8936992446
 11
2635.9207607637
 21
147.0811992446
  0
MTEXT
  5
2F8
100
AcDbEntity
  8
0
100
AcDbMText
 62
2
  6
CONTINUOUS
  7
TEXTSTYLE_2
 71
2
 72
1
 10
2528.7207607637
 20
174.6314492446
 30
0.0
 11
1.0
 21
0.0
 31
0.0
 73
2
 44
0.9
  1
N/A
 40
18.288
 41
48.8133234201
  0
LINE
  5
2F9
100
AcDbEntity
  8
0
100
AcDbLine
 62
2
  6
CONTINUOUS
 10
2636.1660422868
 20
288.5880285951
 11
2912.1660422868
 21
288.5880285951
  0
LINE
  5
2FA
100
AcDbEntity
  8
0
100
AcDbLine
 62
2
  6
CONTINUOUS
 10
2636.1660422868
 20
288.5880285951
 11
2636.1660422868
 21
237.0880285951
  0
LINE
  5
2FB
100
AcDbEntity
  8
0
100
AcDbLine
 62
2
  6
CONTINUOUS
 10
2636.1660422868
 20
237.0880285951
 11
2912.1660422868
 21
237.0880285951
  0
LINE
  5
2FC
100
AcDbEntity
  8
0
100
AcDbLine
 62
2
  6
CONTINUOUS
 10
2912.1660422868
 20
288.5880285951
 11
2912.1660422868
 21
237.0880285951
  0
MTEXT
  5
2FD
100
AcDbEntity
  8
0
100
AcDbMText
 62
2
  6
CONTINUOUS
  7
TEXTSTYLE_2
 71
1
 72
1
 10
2636.6660422868
 20
262.7505285951
 30
0.0
 11
1.0
 21
0.0
 31
0.0
 73
2
 44
0.9
  1
 F. GERSTENBERGER
 40
12.7
 41
164.06133829
  0
LINE
  5
2FE
100
AcDbEntity
  8
0
100
AcDbLine
 62
2
  6
CONTINUOUS
 10
2636.2423267059
 20
237.3526565659
 11
2912.2423267059
 21
237.3526565659
  0
LINE
  5
2FF
100
AcDbEntity
  8
0
100
AcDbLine
 62
2
  6
CONTINUOUS
 10
2636.2423267059
 20
237.3526565659
 11
2636.2423267059
 21
182.8526565659
  0
LINE
  5
300
100
AcDbEntity
  8
0
100
AcDbLine
 62
2
  6
CONTINUOUS
 10
2636.2423267059
 20
182.8526565659
 11
2912.2423267059
 21
182.8526565659
  0
LINE
  5
301
100
AcDbEntity
  8
0
100
AcDbLine
 62
2
  6
CONTINUOUS
 10
2912.2423267059
 20
237.3526565659
 11
2912.2423267059
 21
182.8526565659
  0
MTEXT
  5
302
100
AcDbEntity
  8
0
100
AcDbMText
 62
2
  6
CONTINUOUS
  7
TEXTSTYLE_2
 71
1
 72
1
 10
2636.7423267059
 20
209.6401565659
 30
0.0
 11
1.0
 21
0.0
 31
0.0
 73
2
 44
0.9
  1
 T. AMUNDSON
 40
12.7
 41
126.8111524164
  0
LINE
  5
303
100
AcDbEntity
  8
0
100
AcDbLine
 62
2
  6
CONTINUOUS
 10
2636.2989176483
 20
182.7458783779
 11
2912.2989176483
 21
182.7458783779
  0
LINE
  5
304
100
AcDbEntity
  8
0
100
AcDbLine
 62
2
  6
CONTINUOUS
 10
2636.2989176483
 20
182.7458783779
 11
2636.2989176483
 21
128.2458783779
  0
LINE
  5
305
100
AcDbEntity
  8
0
100
AcDbLine
 62
2
  6
CONTINUOUS
 10
2636.2989176483
 20
128.2458783779
 11
2912.2989176483
 21
128.2458783779
  0
LINE
  5
306
100
AcDbEntity
  8
0
100
AcDbLine
 62
2
  6
CONTINUOUS
 10
2912.2989176483
 20
182.7458783779
 11
2912.2989176483
 21
128.2458783779
  0
MTEXT
  5
307
100
AcDbEntity
  8
0
100
AcDbMText
 62
2
  6
CONTINUOUS
  7
TEXTSTYLE_2
 71
1
 72
1
 10
2636.7989176483
 20
155.0333783779
 30
0.0
 11
1.0
 21
0.0
 31
0.0
 73
2
 44
0.9
  1
 C. SMOLEN
 40
12.7
 41
100.3724907063
  0
LINE
  5
308
100
AcDbEntity
  8
0
100
AcDbLine
 62
2
  6
CONTINUOUS
 10
2636.2615330401
 20
128.9475123085
 11
2912.2615330401
 21
128.9475123085
  0
LINE
  5
309
100
AcDbEntity
  8
0
100
AcDbLine
 62
2
  6
CONTINUOUS
 10
2636.2615330401
 20
128.9475123085
 11
2636.2615330401
 21
74.4475123085
  0
LINE
  5
30A
100
AcDbEntity
  8
0
100
AcDbLine
 62
2
  6
CONTINUOUS
 10
2636.2615330401
 20
74.4475123085
 11
2912.2615330401
 21
74.4475123085
  0
LINE
  5
30B
100
AcDbEntity
  8
0
100
AcDbLine
 62
2
  6
CONTINUOUS
 10
2912.2615330401
 20
128.9475123085
 11
2912.2615330401
 21
74.4475123085
  0
MTEXT
  5
30C
100
AcDbEntity
  8
0
100
AcDbMText
 62
2
  6
CONTINUOUS
  7
TEXTSTYLE_2
 71
1
 72
1
 10
2636.7615330401
 20
101.2350123085
 30
0.0
 11
1.0
 21
0.0
 31
0.0
 73
2
 44
0.9
  1
 C. YOMOGIDA
 40
12.7
 41
132.3821561338
  0
LINE
  5
30D
100
AcDbEntity
  8
0
100
AcDbLine
 62
2
  6
CONTINUOUS
 10
2912.8824510229
 20
99.6129637168
 11
3007.2824510229
 21
99.6129637168
  0
LINE
  5
30E
100
AcDbEntity
  8
0
100
AcDbLine
 62
2
  6
CONTINUOUS
 10
2912.8824510229
 20
99.6129637168
 11
2912.8824510229
 21
74.8004637168
  0
LINE
  5
30F
100
AcDbEntity
  8
0
100
AcDbLine
 62
2
  6
CONTINUOUS
 10
2912.8824510229
 20
74.8004637168
 11
3007.2824510229
 21
74.8004637168
  0
LINE
  5
310
100
AcDbEntity
  8
0
100
AcDbLine
 62
2
  6
CONTINUOUS
 10
3007.2824510229
 20
99.6129637168
 11
3007.2824510229
 21
74.8004637168
  0
MTEXT
  5
311
100
AcDbEntity
  8
0
100
AcDbMText
 62
2
  6
CONTINUOUS
  7
TEXTSTYLE_2
 71
2
 72
1
 10
2983.6824510229
 20
94.3187137168
 30
0.0
 11
1.0
 21
0.0
 31
0.0
 73
2
 44
0.9
  1
1:8
 40
14.224
 41
27.4962081784
  0
LINE
  5
312
100
AcDbEntity
  8
0
100
AcDbLine
 62
2
  6
CONTINUOUS
 10
3246.3434537039
 20
99.8008641797
 11
3384.3434537039
 21
99.8008641797
  0
LINE
  5
313
100
AcDbEntity
  8
0
100
AcDbLine
 62
2
  6
CONTINUOUS
 10
3246.3434537039
 20
99.8008641797
 11
3246.3434537039
 21
75.7383641797
  0
LINE
  5
314
100
AcDbEntity
  8
0
100
AcDbLine
 62
2
  6
CONTINUOUS
 10
3246.3434537039
 20
75.7383641797
 11
3384.3434537039
 21
75.7383641797
  0
LINE
  5
315
100
AcDbEntity
  8
0
100
AcDbLine
 62
2
  6
CONTINUOUS
 10
3384.3434537039
 20
99.8008641797
 11
3384.3434537039
 21
75.7383641797
  0
MTEXT
  5
316
100
AcDbEntity
  8
0
100
AcDbMText
 62
2
  6
CONTINUOUS
  7
TEXTSTYLE_2
 71
2
 72
1
 10
3342.9434537039
 20
95.1779461797
 30
0.0
 11
1.0
 21
0.0
 31
0.0
 73
2
 44
0.9
  1
1 OF 1
 40
14.816664
 41
62.3511659777
  0
LINE
  5
317
100
AcDbEntity
  8
0
100
AcDbLine
 62
2
  6
CONTINUOUS
 10
3007.2241838951
 20
99.7453402727
 11
3245.6241838951
 21
99.7453402727
  0
LINE
  5
318
100
AcDbEntity
  8
0
100
AcDbLine
 62
2
  6
CONTINUOUS
 10
3007.2241838951
 20
99.7453402727
 11
3007.2241838951
 21
75.6828402727
  0
LINE
  5
319
100
AcDbEntity
  8
0
100
AcDbLine
 62
2
  6
CONTINUOUS
 10
3007.2241838951
 20
75.6828402727
 11
3245.6241838951
 21
75.6828402727
  0
LINE
  5
31A
100
AcDbEntity
  8
0
100
AcDbLine
 62
2
  6
CONTINUOUS
 10
3245.6241838951
 20
99.7453402727
 11
3245.6241838951
 21
75.6828402727
  0
MTEXT
  5
31B
100
AcDbEntity
  8
0
100
AcDbMText
 62
2
  6
CONTINUOUS
  7
TEXTSTYLE_2
 71
2
 72
1
 10
3156.2241838951
 20
92.7940902727
 30
0.0
 11
1.0
 21
0.0
 31
0.0
 73
2
 44
0.9
  1
FG-901639-2D.A1.1 
 40
10.16
 41
132.1555390335
  0
LINE
  5
31C
100
AcDbEntity
  8
0
100
AcDbLine
 62
2
  6
CONTINUOUS
 10
2368.465627759
 20
379.0397495629
 11
2635.465627759
 21
379.0397495629
  0
LINE
  5
31D
100
AcDbEntity
  8
0
100
AcDbLine
 62
2
  6
CONTINUOUS
 10
2368.465627759
 20
379.0397495629
 11
2368.465627759
 21
222.5397495629
  0
LINE
  5
31E
100
AcDbEntity
  8
0
100
AcDbLine
 62
2
  6
CONTINUOUS
 10
2368.465627759
 20
222.5397495629
 11
2635.465627759
 21
222.5397495629
  0
LINE
  5
31F
100
AcDbEntity
  8
0
100
AcDbLine
 62
2
  6
CONTINUOUS
 10
2635.465627759
 20
379.0397495629
 11
2635.465627759
 21
222.5397495629
  0
MTEXT
  5
320
100
AcDbEntity
  8
0
100
AcDbMText
 62
2
  6
CONTINUOUS
  7
TEXTSTYLE_2
 71
1
 72
1
 10
2395.665627759
 20
268.0147495629
 30
0.0
 11
1.0
 21
0.0
 31
0.0
 73
2
 44
0.9
  1
.X \fgdt;{\W1.0;{\fgdt;`}}\fCentury Gothic; 3 [.12]               \fgdt;{\W1.0;{\fgdt;`}}\fCentury Gothic;1\fgdt;{\W1.0;{\fgdt;~}}
 40
12.7
 41
198.8092936803
  0
LINE
  5
321
100
AcDbEntity
  8
0
100
AcDbLine
 62
2
  6
CONTINUOUS
 10
2247.9946321239
 20
2167.0700427448
 11
3383.3146321239
 21
2167.0700427448
  0
LINE
  5
322
100
AcDbEntity
  8
0
100
AcDbLine
 62
2
  6
CONTINUOUS
 10
2247.9946321239
 20
2167.0700427448
 11
2247.9946321239
 21
2020.7660427448
  0
LINE
  5
323
100
AcDbEntity
  8
0
100
AcDbLine
 62
2
  6
CONTINUOUS
 10
2247.9946321239
 20
2130.4940427448
 11
3383.3146321239
 21
2130.4940427448
  0
LINE
  5
324
100
AcDbEntity
  8
0
100
AcDbLine
 62
2
  6
CONTINUOUS
 10
2247.9946321239
 20
2093.9180427448
 11
3383.3146321239
 21
2093.9180427448
  0
LINE
  5
325
100
AcDbEntity
  8
0
100
AcDbLine
 62
2
  6
CONTINUOUS
 10
2247.9946321239
 20
2057.3420427448
 11
3383.3146321239
 21
2057.3420427448
  0
LINE
  5
326
100
AcDbEntity
  8
0
100
AcDbLine
 62
2
  6
CONTINUOUS
 10
2247.9946321239
 20
2020.7660427448
 11
3383.3146321239
 21
2020.7660427448
  0
LINE
  5
327
100
AcDbEntity
  8
0
100
AcDbLine
 62
2
  6
CONTINUOUS
 10
2327.0026321239
 20
2130.4940427448
 11
2327.0026321239
 21
2020.7660427448
  0
LINE
  5
328
100
AcDbEntity
  8
0
100
AcDbLine
 62
2
  6
CONTINUOUS
 10
3155.0826321239
 20
2130.4940427448
 11
3155.0826321239
 21
2020.7660427448
  0
LINE
  5
329
100
AcDbEntity
  8
0
100
AcDbLine
 62
2
  6
CONTINUOUS
 10
3228.2346321239
 20
2130.4940427448
 11
3228.2346321239
 21
2020.7660427448
  0
LINE
  5
32A
100
AcDbEntity
  8
0
100
AcDbLine
 62
2
  6
CONTINUOUS
 10
3383.3146321239
 20
2167.0700427448
 11
3383.3146321239
 21
2020.7660427448
  0
MTEXT
  5
32B
100
AcDbEntity
  8
0
100
AcDbMText
 62
2
  6
CONTINUOUS
  7
TEXTSTYLE_2
 71
2
 72
1
 10
2815.6546321239
 20
2157.9260427448
 30
0.0
 11
1.0
 21
0.0
 31
0.0
 73
2
 44
0.9
  1
REVISION
 40
18.288
 41
112.3114349442
  0
MTEXT
  5
32C
100
AcDbEntity
  8
0
100
AcDbMText
 62
2
  6
CONTINUOUS
  7
TEXTSTYLE_2
 71
2
 72
1
 10
2287.4986321239
 20
2121.3500427448
 30
0.0
 11
1.0
 21
0.0
 31
0.0
 73
2
 44
0.9
  1
REV
 40
18.288
 41
47.0457100372
  0
MTEXT
  5
32D
100
AcDbEntity
  8
0
100
AcDbMText
 62
2
  6
CONTINUOUS
  7
TEXTSTYLE_2
 71
1
 72
1
 10
2334.3178321239
 20
2121.3500427448
 30
0.0
 11
1.0
 21
0.0
 31
0.0
 73
2
 44
0.9
  1
                                                  DESCRIPTION
 40
18.288
 41
513.6276579926
  0
MTEXT
  5
32E
100
AcDbEntity
  8
0
100
AcDbMText
 62
2
  6
CONTINUOUS
  7
TEXTSTYLE_2
 71
2
 72
1
 10
3191.6586321239
 20
2121.3500427448
 30
0.0
 11
1.0
 21
0.0
 31
0.0
 73
2
 44
0.9
  1
BY
 40
18.288
 41
29.7095018587
  0
MTEXT
  5
32F
100
AcDbEntity
  8
0
100
AcDbMText
 62
2
  6
CONTINUOUS
  7
TEXTSTYLE_2
 71
2
 72
1
 10
3305.7746321239
 20
2121.3500427448
 30
0.0
 11
1.0
 21
0.0
 31
0.0
 73
2
 44
0.9
  1
DATE
 40
18.288
 41
62.3423643123
  0
MTEXT
  5
330
100
AcDbEntity
  8
0
100
AcDbMText
 62
2
  6
CONTINUOUS
  7
STANDARD
 71
2
 72
1
 10
2287.4986321239
 20
2084.7740427448
 30
0.0
 11
1.0
 21
0.0
 31
0.0
 73
2
 44
0.9
  1
A
 40
18.288
 41
18.8318810409
  0
MTEXT
  5
331
100
AcDbEntity
  8
0
100
AcDbMText
 62
2
  6
CONTINUOUS
  7
STANDARD
 71
1
 72
1
 10
2334.3178321239
 20
2084.7740427448
 30
0.0
 11
1.0
 21
0.0
 31
0.0
 73
2
 44
0.9
  1
INITIAL RELEASE
 40
18.288
 41
184.5116431227
  0
MTEXT
  5
332
100
AcDbEntity
  8
0
100
AcDbMText
 62
2
  6
CONTINUOUS
  7
STANDARD
 71
2
 72
1
 10
3191.6586321239
 20
2084.7740427448
 30
0.0
 11
1.0
 21
0.0
 31
0.0
 73
2
 44
0.9
  1
FG
 40
18.288
 41
34.6044312268
  0
MTEXT
  5
333
100
AcDbEntity
  8
0
100
AcDbMText
 62
2
  6
CONTINUOUS
  7
STANDARD
 71
2
 72
1
 10
3305.7746321239
 20
2084.7740427448
 30
0.0
 11
1.0
 21
0.0
 31
0.0
 73
2
 44
0.9
  1
06-JAN-25
 40
18.288
 41
123.5289814126
  0
MTEXT
  5
334
100
AcDbEntity
  8
0
100
AcDbMText
 62
2
  6
CONTINUOUS
  7
STANDARD
 71
2
 72
1
 10
2287.4986321239
 20
2048.1980427448
 30
0.0
 11
1.0
 21
0.0
 31
0.0
 73
2
 44
0.9
  1
A1
 40
18.288
 41
32.9727881041
  0
MTEXT
  5
335
100
AcDbEntity
  8
0
100
AcDbMText
 62
2
  6
CONTINUOUS
  7
STANDARD
 71
1
 72
1
 10
2334.3178321239
 20
2048.1980427448
 30
0.0
 11
1.0
 21
0.0
 31
0.0
 73
2
 44
0.9
  1
CORRECTION TO MISSING REFERENCE
 40
18.288
 41
459.3075390335
  0
MTEXT
  5
336
100
AcDbEntity
  8
0
100
AcDbMText
 62
2
  6
CONTINUOUS
  7
STANDARD
 71
2
 72
1
 10
3191.6586321239
 20
2048.1980427448
 30
0.0
 11
1.0
 21
0.0
 31
0.0
 73
2
 44
0.9
  1
SS
 40
18.288
 41
25.4264386617
  0
MTEXT
  5
337
100
AcDbEntity
  8
0
100
AcDbMText
 62
2
  6
CONTINUOUS
  7
STANDARD
 71
2
 72
1
 10
3305.7746321239
 20
2048.1980427448
 30
0.0
 11
1.0
 21
0.0
 31
0.0
 73
2
 44
0.9
  1
23-MAY-2025
 40
18.288
 41
159.2211747212
  0
TEXT
  5
338
100
AcDbEntity
  8
0
100
AcDbText
 62
2
  6
CONTINUOUS
 10
122.0540467077
 20
2010.692912993
  7
STANDARD
 40
18.288
  1
NOTES: UNLESS OTHERWISE SPECIFIED  
 41
1.0
 72
0
100
AcDbText
  0
TEXT
  5
339
100
AcDbEntity
  8
0
100
AcDbText
 62
2
  6
CONTINUOUS
 10
122.0540467077
 20
1983.260912993
  7
STANDARD
 40
18.288
  1
1.    NET WEIGHT APPROX. 12.2 KG [26.9 LBS].  
 41
1.0
 72
0
100
AcDbText
  0
TEXT
  5
33A
100
AcDbEntity
  8
0
100
AcDbText
 62
2
  6
CONTINUOUS
 10
122.0540467077
 20
1955.828912993
  7
STANDARD
 40
18.288
  1
2.    PARTS ARE SYMMETRICAL ABOUT CENTER LINES UNLESS OTHERWISE NOTED.  
 41
1.0
 72
0
100
AcDbText
  0
TEXT
  5
33B
100
AcDbEntity
  8
0
100
AcDbText
 62
2
  6
CONTINUOUS
 10
122.0540467077
 20
1928.396912993
  7
STANDARD
 40
18.288
  1
3.    SYMBOL     INDICATES CENTER OF GRAVITY.  
 41
1.0
 72
0
100
AcDbText
  0
TEXT
  5
33C
100
AcDbEntity
  8
0
100
AcDbText
 62
2
  6
CONTINUOUS
 10
131.1980467077
 20
1896.392912993
  7
STANDARD
 40
18.288
  1
4
 41
1.0
 72
0
100
AcDbText
  0
TEXT
  5
33D
100
AcDbEntity
  8
0
100
AcDbText
 62
2
  6
CONTINUOUS
 10
154.4829537709
 20
1896.392912993
  7
STANDARD
 40
18.288
  1
    POLE MOUNT ATTACHMENT POINT.  
 41
1.0
 72
0
100
AcDbText
  0
TEXT
  5
33E
100
AcDbEntity
  8
0
100
AcDbText
 62
2
  6
CONTINUOUS
 10
122.0540467077
 20
1864.388912993
  7
STANDARD
 40
18.288
  1
5.    GRILLE NOT SHOWN FOR CLARITY. 
 41
1.0
 72
0
100
AcDbText
  0
MTEXT
  5
33F
100
AcDbEntity
  8
0
100
AcDbMText
 62
2
  6
CONTINUOUS
  7
TEXTSTYLE_3
 71
1
 72
1
 10
1225.7004185935
 20
742.9865062156
 30
0.0
 11
1.0
 21
0.0
 31
0.0
 73
2
 44
0.9
  1
{\fgdt;q}
 40
18.288
 41
28.956
  0
TEXT
  5
340
100
AcDbEntity
  8
0
100
AcDbText
 62
2
  6
CONTINUOUS
 10
960.769356827
 20
448.6788107675
  7
STANDARD
 40
18.288
  1
4
 41
1.0
 72
2
 11
974.9102638902
 21
448.6788107675
100
AcDbText
  0
LEADER
  5
341
100
AcDbEntity
  8
0
100
AcDbLeader
 62
2
  6
CONTINUOUS
  3
STANDARD
 71
1
 72
0
 73
3
 75
0
 76
3
 10
1222.2320477999
 20
401.7670386094
 30
0.0
 10
1034.8542638902
 20
457.8228107675
 30
0.0
 10
984.0542638902
 20
457.8228107675
 30
0.0
1001
ACAD
1000
DSTYLE
1002
{
1070
77
1070
0
1002
}
  0
INSERT
  5
342
100
AcDbEntity
  8
0
100
AcDbBlockReference
 62
2
  6
CONTINUOUS
  2
CG_3D_BL0
 10
288.9218428717
 20
1937.237030476
  0
INSERT
  5
343
100
AcDbEntity
  8
0
100
AcDbBlockReference
 62
2
  6
CONTINUOUS
  2
CG_3D_BL1
 10
1241.1905133076
 20
962.91820732
  0
INSERT
  5
344
100
AcDbEntity
  8
0
100
AcDbBlockReference
 62
2
  6
CONTINUOUS
  2
CG_3D_BL2
 10
1241.0318830956
 20
1615.7024752265
  0
LWPOLYLINE
  5
345
100
AcDbEntity
  8
0
100
AcDbPolyline
 62
7
  6
CONTINUOUS
 90
2
 70
0
 43
1.999999991
 10
59.1347637795
 20
1128.8249112643
 10
59.1347637795
 20
1114.1602144267
  0
LWPOLYLINE
  5
346
100
AcDbEntity
  8
0
100
AcDbPolyline
 62
7
  6
CONTINUOUS
 90
2
 70
0
 43
1.999999991
 10
71.8347637795
 20
2167.9725628459
 10
71.8347637795
 20
75.0125628459
  0
LWPOLYLINE
  5
347
100
AcDbEntity
  8
0
100
AcDbPolyline
 62
7
  6
CONTINUOUS
 90
2
 70
0
 43
1.999999991
 10
485.8547637795
 20
75.0125628459
 10
485.8547637795
 20
49.6125628459
  0
LWPOLYLINE
  5
348
100
AcDbEntity
  8
0
100
AcDbPolyline
 62
7
  6
CONTINUOUS
 90
2
 70
0
 43
1.999999991
 10
485.8547637795
 20
2167.9725628459
 10
485.8547637795
 20
2193.3725628459
  0
LWPOLYLINE
  5
349
100
AcDbEntity
  8
0
100
AcDbPolyline
 62
7
  6
CONTINUOUS
 90
2
 70
0
 43
1.999999991
 10
2596.4465570971
 20
99.0714506643
 10
2626.9265570979
 20
104.1514506643
  0
LWPOLYLINE
  5
34A
100
AcDbEntity
  8
0
100
AcDbPolyline
 62
7
  6
CONTINUOUS
 90
2
 70
0
 43
1.999999991
 10
666.70551476
 20
2076.3194508043
 10
666.70551476
 20
2166.9949342631
  0
LWPOLYLINE
  5
34B
100
AcDbEntity
  8
0
100
AcDbPolyline
 62
7
  6
CONTINUOUS
 90
2
 70
0
 43
1.999999991
 10
1735.2471121979
 20
62.3125628459
 10
1720.5824153611
 20
62.3125628459
  0
LWPOLYLINE
  5
34C
100
AcDbEntity
  8
0
100
AcDbPolyline
 62
7
  6
CONTINUOUS
 90
2
 70
0
 43
1.999999991
 10
3383.9947637795
 20
75.0125628459
 10
71.8347637795
 20
75.0125628459
  0
LWPOLYLINE
  5
34D
100
AcDbEntity
  8
0
100
AcDbPolyline
 62
7
  6
CONTINUOUS
 90
2
 70
0
 43
0.7999999758
 10
2562.9591970971
 20
93.9914506643
 10
2589.2939170979
 20
93.9914506643
  0
LWPOLYLINE
  5
34E
100
AcDbEntity
  8
0
100
AcDbPolyline
 62
7
  6
CONTINUOUS
 90
2
 70
0
 43
0.7999999758
 10
2592.6634651627
 20
93.9914506643
 10
2630.0355851579
 20
93.9914506643
  0
LWPOLYLINE
  5
34F
100
AcDbEntity
  8
0
100
AcDbPolyline
 62
7
  6
CONTINUOUS
 90
2
 70
0
 43
1.999999991
 10
2912.9058402979
 20
100.4125628459
 10
3383.9947637795
 20
100.4125628459
  0
LWPOLYLINE
  5
350
100
AcDbEntity
  8
0
100
AcDbPolyline
 62
7
  6
CONTINUOUS
 90
2
 70
0
 43
1.999999991
 10
2367.9947637795
 20
111.5885628459
 10
2635.6068612347
 20
111.5885628459
  0
LWPOLYLINE
  5
351
100
AcDbEntity
  8
0
100
AcDbPolyline
 62
7
  6
CONTINUOUS
 90
2
 70
0
 43
1.999999991
 10
2635.3178193955
 20
129.0125628459
 10
2912.6167984587
 20
129.0125628459
  0
LWPOLYLINE
  5
352
100
AcDbEntity
  8
0
100
AcDbPolyline
 62
7
  6
CONTINUOUS
 90
2
 70
0
 43
1.999999991
 10
2367.9947637795
 20
148.1645628459
 10
2635.6068612347
 20
148.1645628459
  0
LWPOLYLINE
  5
353
100
AcDbEntity
  8
0
100
AcDbPolyline
 62
7
  6
CONTINUOUS
 90
2
 70
0
 43
1.999999991
 10
2912.9058402979
 20
152.0125628459
 10
3383.9947637795
 20
152.0125628459
  0
LWPOLYLINE
  5
354
100
AcDbEntity
  8
0
100
AcDbPolyline
 62
7
  6
CONTINUOUS
 90
2
 70
0
 43
1.999999991
 10
59.1347637795
 20
1114.1602144267
 10
71.8347637795
 20
1121.4925628459
  0
LWPOLYLINE
  5
355
100
AcDbEntity
  8
0
100
AcDbPolyline
 62
7
  6
CONTINUOUS
 90
2
 70
0
 43
1.999999991
 10
2635.6068612347
 20
183.0125628459
 10
2912.9058402979
 20
183.0125628459
  0
LWPOLYLINE
  5
356
100
AcDbEntity
  8
0
100
AcDbPolyline
 62
7
  6
CONTINUOUS
 90
2
 70
0
 43
1.999999991
 10
2367.9947637795
 20
184.7405628459
 10
2635.6068612347
 20
184.7405628459
  0
LWPOLYLINE
  5
357
100
AcDbEntity
  8
0
100
AcDbPolyline
 62
7
  6
CONTINUOUS
 90
2
 70
0
 43
1.999999991
 10
2635.6068612347
 20
221.8535008235
 10
2367.9947637795
 20
221.8535008235
  0
LWPOLYLINE
  5
358
100
AcDbEntity
  8
0
100
AcDbPolyline
 62
7
  6
CONTINUOUS
 90
2
 70
0
 43
1.999999991
 10
2635.6068612347
 20
237.0125628459
 10
2912.9058402979
 20
237.0125628459
  0
LWPOLYLINE
  5
359
100
AcDbEntity
  8
0
100
AcDbPolyline
 62
7
  6
CONTINUOUS
 90
2
 70
0
 43
1.999999991
 10
2635.6068612347
 20
288.8109404515
 10
2912.9058402979
 20
288.8109404515
  0
LWPOLYLINE
  5
35A
100
AcDbEntity
  8
0
100
AcDbPolyline
 62
7
  6
CONTINUOUS
 90
2
 70
0
 43
1.999999991
 10
2596.4465570971
 20
88.9114506643
 10
2626.9265570979
 20
83.8314506643
  0
LWPOLYLINE
  5
35B
100
AcDbEntity
  8
0
100
AcDbPolyline
 62
7
  6
CONTINUOUS
 90
2
 70
0
 43
1.999999991
 10
899.8747637795
 20
75.0125628459
 10
899.8747637795
 20
49.6125628459
  0
LWPOLYLINE
  5
35C
100
AcDbEntity
  8
0
100
AcDbPolyline
 62
7
  6
CONTINUOUS
 90
2
 70
0
 43
1.999999991
 10
899.8747637795
 20
2167.9725628459
 10
899.8747637795
 20
2193.3725628459
  0
LWPOLYLINE
  5
35D
100
AcDbEntity
  8
0
100
AcDbPolyline
 62
7
  6
CONTINUOUS
 90
2
 70
0
 43
1.999999991
 10
2912.9058402979
 20
303.6125628459
 10
3383.9947637795
 20
303.6125628459
  0
LWPOLYLINE
  5
35E
100
AcDbEntity
  8
0
100
AcDbPolyline
 62
7
  6
CONTINUOUS
 90
2
 70
0
 43
1.999999991
 10
2635.6068612347
 20
310.1469404515
 10
2912.9058402979
 20
310.1469404515
  0
LINE
  5
35F
100
AcDbEntity
  8
0
100
AcDbLine
 62
7
  6
CONTINUOUS
 10
2962.3417252432
 20
319.9450529654
 11
2973.1815599254
 21
319.9450529654
  0
LINE
  5
360
100
AcDbEntity
  8
0
100
AcDbLine
 62
7
  6
CONTINUOUS
 10
2933.5219189737
 20
324.1389308483
 11
2961.64557068
 21
324.1389308483
  0
LINE
  5
361
100
AcDbEntity
  8
0
100
AcDbLine
 62
7
  6
CONTINUOUS
 10
2973.8777144886
 20
324.1389308483
 11
2979.4078769993
 21
324.1389308483
  0
LINE
  5
362
100
AcDbEntity
  8
0
100
AcDbLine
 62
7
  6
CONTINUOUS
 10
2994.6397743965
 20
324.1389308336
 11
3044.9473875203
 21
324.1389308336
  0
LINE
  5
363
100
AcDbEntity
  8
0
100
AcDbLine
 62
7
  6
CONTINUOUS
 10
3035.1630767843
 20
331.1882310384
 11
2994.6397743965
 21
331.1882310384
  0
LINE
  5
364
100
AcDbEntity
  8
0
100
AcDbLine
 62
7
  6
CONTINUOUS
 10
3116.4766894889
 20
331.345028856
 11
3074.7686460867
 21
331.345028856
  0
LINE
  5
365
100
AcDbEntity
  8
0
100
AcDbLine
 62
7
  6
CONTINUOUS
 10
2940.6981899977
 20
331.5967444758
 11
2961.4872412374
 21
331.5967444758
  0
LINE
  5
366
100
AcDbEntity
  8
0
100
AcDbLine
 62
7
  6
CONTINUOUS
 10
2973.6641427696
 20
331.5967445123
 11
2976.8613820912
 21
331.5967445123
  0
LINE
  5
367
100
AcDbEntity
  8
0
100
AcDbLine
 62
7
  6
CONTINUOUS
 10
2962.1833958083
 20
335.7797848822
 11
2972.9679882358
 21
335.7797848822
  0
LINE
  5
368
100
AcDbEntity
  8
0
100
AcDbLine
 62
7
  6
CONTINUOUS
 10
3000.3995003555
 20
338.5040716669
 11
3035.1630767913
 21
338.5040716669
  0
LINE
  5
369
100
AcDbEntity
  8
0
100
AcDbLine
 62
7
  6
CONTINUOUS
 10
3044.9473875203
 20
345.8204773949
 11
3010.6471865616
 21
345.8204773949
  0
LINE
  5
36A
100
AcDbEntity
  8
0
100
AcDbLine
 62
7
  6
CONTINUOUS
 10
3010.6471865545
 20
352.86518628
 11
3051.2254933795
 21
352.86518628
  0
LINE
  5
36B
100
AcDbEntity
  8
0
100
AcDbLine
 62
7
  6
CONTINUOUS
 10
3074.7686460944
 20
352.9374014979
 11
3116.4766894813
 21
352.9374014979
  0
LINE
  5
36C
100
AcDbEntity
  8
0
100
AcDbLine
 62
7
  6
CONTINUOUS
 10
2940.6981900048
 20
353.2652483504
 11
2976.8613820765
 21
353.2652483504
  0
LINE
  5
36D
100
AcDbEntity
  8
0
100
AcDbLine
 62
7
  6
CONTINUOUS
 10
2979.4078769993
 20
360.1363826819
 11
2933.5219189737
 21
360.1363826819
  0
LINE
  5
36E
100
AcDbEntity
  8
0
100
AcDbLine
 62
7
  6
CONTINUOUS
 10
3116.4766894909
 20
360.1786529654
 11
3067.8169546166
 21
360.1786529654
  0
LINE
  5
36F
100
AcDbEntity
  8
0
100
AcDbLine
 62
7
  6
CONTINUOUS
 10
3051.2254933795
 20
360.1786529584
 11
3000.3995003555
 21
360.1786529584
  0
LWPOLYLINE
  5
370
100
AcDbEntity
  8
0
100
AcDbPolyline
 62
7
  6
CONTINUOUS
 90
2
 70
0
 43
1.999999991
 10
2367.9947637795
 20
379.8125628459
 10
3383.9947637795
 20
379.8125628459
  0
LINE
  5
371
100
AcDbEntity
  8
0
100
AcDbLine
 62
7
  6
CONTINUOUS
 10
3067.8169546166
 20
324.1389491069
 11
3116.480639992
 21
324.0785406781
  0
LWPOLYLINE
  5
372
100
AcDbEntity
  8
0
100
AcDbPolyline
 62
7
  6
CONTINUOUS
 90
2
 70
0
 43
1.999999991
 10
71.8347637795
 20
1121.4925628459
 10
59.1347637795
 20
1128.8249112643
  0
LINE
  5
373
100
AcDbEntity
  8
DEFAULT_3
100
AcDbLine
 62
8
  6
PHANTOM
 10
1237.0453503989
 20
742.6137044619
 11
1237.0453503989
 21
1257.1635711557
  0
LINE
  5
374
100
AcDbEntity
  8
DEFAULT_3
100
AcDbLine
 62
8
  6
PHANTOM
 10
1237.0453503989
 20
1477.4855718591
 11
1237.0453503989
 21
1789.294902929
  0
LWPOLYLINE
  5
375
100
AcDbEntity
  8
0
100
AcDbPolyline
 62
7
  6
CONTINUOUS
 90
2
 70
0
 43
1.999999991
 10
1727.9147637795
 20
2167.9725628459
 10
1735.2471121979
 20
2180.6725628459
  0
LWPOLYLINE
  5
376
100
AcDbEntity
  8
0
100
AcDbPolyline
 62
7
  6
CONTINUOUS
 90
2
 70
0
 43
1.999999991
 10
71.8347637795
 20
598.2525628459
 10
46.4347637795
 20
598.2525628459
  0
LWPOLYLINE
  5
377
100
AcDbEntity
  8
0
100
AcDbPolyline
 62
7
  6
CONTINUOUS
 90
2
 70
0
 43
1.999999991
 10
3383.9947637795
 20
598.2525628459
 10
3409.3947637795
 20
598.2525628459
  0
LWPOLYLINE
  5
378
100
AcDbEntity
  8
0
100
AcDbPolyline
 62
7
  6
CONTINUOUS
 90
2
 70
0
 43
1.999999991
 10
1727.9147637795
 20
75.0125628459
 10
1735.2471121979
 20
62.3125628459
  0
LWPOLYLINE
  5
379
100
AcDbEntity
  8
0
100
AcDbPolyline
 62
7
  6
CONTINUOUS
 90
2
 70
0
 43
1.999999991
 10
1313.8947637795
 20
75.0125628459
 10
1313.8947637795
 20
49.6125628459
  0
LWPOLYLINE
  5
37A
100
AcDbEntity
  8
0
100
AcDbPolyline
 62
7
  6
CONTINUOUS
 90
2
 70
0
 43
1.999999991
 10
1313.8947637795
 20
2167.9725628459
 10
1313.8947637795
 20
2193.3725628459
  0
LWPOLYLINE
  5
37B
100
AcDbEntity
  8
0
100
AcDbPolyline
 62
7
  6
CONTINUOUS
 90
2
 70
0
 43
1.999999991
 10
1727.9147637795
 20
75.0125628459
 10
1727.9147637795
 20
49.6125628459
  0
LWPOLYLINE
  5
37C
100
AcDbEntity
  8
0
100
AcDbPolyline
 62
7
  6
CONTINUOUS
 90
2
 70
0
 43
1.999999991
 10
1727.9147637795
 20
2167.9725628459
 10
1727.9147637795
 20
2193.3725628459
  0
LWPOLYLINE
  5
37D
100
AcDbEntity
  8
0
100
AcDbPolyline
 62
7
  6
CONTINUOUS
 90
2
 70
0
 43
1.999999991
 10
71.8347637795
 20
1121.4925628459
 10
46.4347637795
 20
1121.4925628459
  0
LWPOLYLINE
  5
37E
100
AcDbEntity
  8
0
100
AcDbPolyline
 62
7
  6
CONTINUOUS
 90
2
 70
0
 43
1.999999991
 10
3383.9947637795
 20
1121.4925628459
 10
3409.3947637795
 20
1121.4925628459
  0
LWPOLYLINE
  5
37F
100
AcDbEntity
  8
0
100
AcDbPolyline
 62
7
  6
CONTINUOUS
 90
2
 70
0
 43
1.999999991
 10
2141.9347637795
 20
75.0125628459
 10
2141.9347637795
 20
49.6125628459
  0
LWPOLYLINE
  5
380
100
AcDbEntity
  8
0
100
AcDbPolyline
 62
7
  6
CONTINUOUS
 90
2
 70
0
 43
1.999999991
 10
2141.9347637795
 20
2167.9725628459
 10
2141.9347637795
 20
2193.3725628459
  0
LWPOLYLINE
  5
381
100
AcDbEntity
  8
0
100
AcDbPolyline
 62
7
  6
CONTINUOUS
 90
2
 70
0
 43
1.999999991
 10
1727.9147637795
 20
75.0125628459
 10
1720.5824153611
 20
62.3125628459
  0
LWPOLYLINE
  5
382
100
AcDbEntity
  8
0
100
AcDbPolyline
 62
7
  6
CONTINUOUS
 90
2
 70
0
 43
1.999999991
 10
71.8347637795
 20
1644.7325628459
 10
46.4347637795
 20
1644.7325628459
  0
LWPOLYLINE
  5
383
100
AcDbEntity
  8
0
100
AcDbPolyline
 62
7
  6
CONTINUOUS
 90
2
 70
0
 43
1.999999991
 10
3383.9947637795
 20
1644.7325628459
 10
3409.3947637795
 20
1644.7325628459
  0
LWPOLYLINE
  5
384
100
AcDbEntity
  8
0
100
AcDbPolyline
 62
7
  6
CONTINUOUS
 90
2
 70
0
 43
1.999999991
 10
1727.9147637795
 20
2167.9725628459
 10
1720.5824153611
 20
2180.6725628459
  0
LWPOLYLINE
  5
385
100
AcDbEntity
  8
0
100
AcDbPolyline
 62
7
  6
CONTINUOUS
 90
2
 70
0
 43
1.999999991
 10
2367.9947637795
 20
75.0125628459
 10
2367.9947637795
 20
379.8125628459
  0
LWPOLYLINE
  5
386
100
AcDbEntity
  8
0
100
AcDbPolyline
 62
7
  6
CONTINUOUS
 90
2
 70
0
 43
1.999999991
 10
2555.9547637795
 20
49.6125628459
 10
2555.9547637795
 20
111.5885628459
  0
LWPOLYLINE
  5
387
100
AcDbEntity
  8
0
100
AcDbPolyline
 62
7
  6
CONTINUOUS
 90
2
 70
0
 43
1.999999991
 10
2555.9547637795
 20
2167.9725628459
 10
2555.9547637795
 20
2193.3725628459
  0
LWPOLYLINE
  5
388
100
AcDbEntity
  8
0
100
AcDbPolyline
 62
7
  6
CONTINUOUS
 90
2
 70
0
 43
0.7999999758
 10
2576.1265570971
 20
80.8240906643
 10
2576.1265570971
 20
107.1588106643
  0
LWPOLYLINE
  5
389
100
AcDbEntity
  8
0
100
AcDbPolyline
 62
7
  6
CONTINUOUS
 90
2
 70
0
 43
1.999999991
 10
3383.9947637795
 20
1121.4925628459
 10
3396.6947637795
 20
1128.8249112643
  0
LWPOLYLINE
  5
38A
100
AcDbEntity
  8
0
100
AcDbPolyline
 62
2
  6
CONTINUOUS
 90
5
 70
0
 10
122.0540467077
 20
1887.248912993
 10
154.4829537709
 20
1887.248912993
 10
154.4829537709
 20
1923.824912993
 10
122.0540467077
 20
1923.824912993
 10
122.0540467077
 20
1887.248912993
  0
LWPOLYLINE
  5
38B
100
AcDbEntity
  8
0
100
AcDbPolyline
 62
7
  6
CONTINUOUS
 90
2
 70
0
 43
1.999999991
 10
3396.6947637795
 20
1114.1602144267
 10
3383.9947637795
 20
1121.4925628459
  0
LWPOLYLINE
  5
38C
100
AcDbEntity
  8
0
100
AcDbPolyline
 62
7
  6
CONTINUOUS
 90
2
 70
0
 43
1.999999991
 10
2596.4465570971
 20
99.0714506643
 10
2596.4465570971
 20
88.9114506643
  0
LWPOLYLINE
  5
38D
100
AcDbEntity
  8
0
100
AcDbPolyline
 62
7
  6
CONTINUOUS
 90
2
 70
0
 43
1.999999991
 10
2626.9265570979
 20
104.1514506643
 10
2626.9265570979
 20
83.8314506643
  0
LWPOLYLINE
  5
38E
100
AcDbEntity
  8
0
100
AcDbPolyline
 62
7
  6
CONTINUOUS
 90
2
 70
0
 43
1.999999991
 10
2635.6068612347
 20
379.8125628459
 10
2635.6068612347
 20
75.0125628459
  0
LWPOLYLINE
  5
38F
100
AcDbEntity
  8
0
100
AcDbPolyline
 62
7
  6
CONTINUOUS
 90
2
 70
0
 43
1.999999991
 10
72.1810295015
 20
2076.3194508043
 10
667.6877493122
 20
2076.3364740614
  0
LWPOLYLINE
  5
390
100
AcDbEntity
  8
0
100
AcDbPolyline
 62
7
  6
CONTINUOUS
 90
2
 70
0
 43
1.999999991
 10
71.8347637795
 20
2167.1725628459
 10
3383.9947637795
 20
2167.1725628459
  0
LWPOLYLINE
  5
391
100
AcDbEntity
  8
0
100
AcDbPolyline
 62
7
  6
CONTINUOUS
 90
2
 70
0
 43
1.999999991
 10
1735.2471121979
 20
2180.6725628459
 10
1720.5824153611
 20
2180.6725628459
  0
LWPOLYLINE
  5
392
100
AcDbEntity
  8
0
100
AcDbPolyline
 62
7
  6
CONTINUOUS
 90
2
 70
0
 43
1.999999991
 10
2912.9058402979
 20
379.8125628459
 10
2912.9058402979
 20
75.0125628459
  0
LINE
  5
393
100
AcDbEntity
  8
0
100
AcDbLine
 62
7
  6
CONTINUOUS
 10
2938.8881881155
 20
333.4067463581
 11
2938.8881881155
 21
351.4552464611
  0
LINE
  5
394
100
AcDbEntity
  8
0
100
AcDbLine
 62
7
  6
CONTINUOUS
 10
3057.5934194781
 20
342.2216325251
 11
3057.5965962205
 21
341.9462256477
  0
LWPOLYLINE
  5
395
100
AcDbEntity
  8
0
100
AcDbPolyline
 62
7
  6
CONTINUOUS
 90
2
 70
0
 43
1.999999991
 10
2949.6258849755
 20
151.2125628459
 10
2949.6258849755
 20
100.4125628459
  0
LINE
  5
396
100
AcDbEntity
  8
0
100
AcDbLine
 62
7
  6
CONTINUOUS
 10
2961.4872412374
 20
331.5967444758
 11
2961.4872412374
 21
335.083630312
  0
LINE
  5
397
100
AcDbEntity
  8
0
100
AcDbLine
 62
7
  6
CONTINUOUS
 10
2961.64557068
 20
324.1389308483
 11
2961.64557068
 21
320.6412075286
  0
LWPOLYLINE
  5
398
100
AcDbEntity
  8
0
100
AcDbPolyline
 62
7
  6
CONTINUOUS
 90
2
 70
0
 43
1.999999991
 10
2969.9747637795
 20
75.0125628459
 10
2969.9747637795
 20
49.6125628459
  0
LWPOLYLINE
  5
399
100
AcDbEntity
  8
0
100
AcDbPolyline
 62
7
  6
CONTINUOUS
 90
2
 70
0
 43
1.999999991
 10
2969.9747637795
 20
2167.9725628459
 10
2969.9747637795
 20
2193.3725628459
  0
LINE
  5
39A
100
AcDbEntity
  8
0
100
AcDbLine
 62
7
  6
CONTINUOUS
 10
2973.6641427696
 20
331.5967445123
 11
2973.6641427696
 21
335.0836303337
  0
LINE
  5
39B
100
AcDbEntity
  8
0
100
AcDbLine
 62
7
  6
CONTINUOUS
 10
2973.8777144886
 20
320.6412075286
 11
2973.8777144886
 21
324.1389308483
  0
LINE
  5
39C
100
AcDbEntity
  8
0
100
AcDbLine
 62
7
  6
CONTINUOUS
 10
2978.6713839657
 20
333.4067463869
 11
2978.6713839657
 21
351.4552464905
  0
LINE
  5
39D
100
AcDbEntity
  8
0
100
AcDbLine
 62
7
  6
CONTINUOUS
 10
2987.9403209104
 20
330.8746342077
 11
2987.9403209104
 21
353.4006793078
  0
LINE
  5
39E
100
AcDbEntity
  8
0
100
AcDbLine
 62
7
  6
CONTINUOUS
 10
2992.8297725149
 20
329.3782291561
 11
2992.8297725149
 21
325.9489327152
  0
LWPOLYLINE
  5
39F
100
AcDbEntity
  8
0
100
AcDbPolyline
 62
7
  6
CONTINUOUS
 90
2
 70
0
 43
1.999999991
 10
3007.6554000283
 20
100.4125628459
 10
3007.6554000283
 20
75.0125628459
  0
LINE
  5
3A0
100
AcDbEntity
  8
0
100
AcDbLine
 62
7
  6
CONTINUOUS
 10
3008.83718468
 20
347.6304792765
 11
3008.83718468
 21
351.0551844054
  0
LINE
  5
3A1
100
AcDbEntity
  8
0
100
AcDbLine
 62
7
  6
CONTINUOUS
 10
3036.9730786589
 20
336.6940697853
 11
3036.9730786589
 21
332.9982329129
  0
LWPOLYLINE
  5
3A2
100
AcDbEntity
  8
0
100
AcDbPolyline
 62
7
  6
CONTINUOUS
 90
2
 70
0
 43
1.999999991
 10
3046.1458849755
 20
151.2125628459
 10
3046.1458849755
 20
100.4125628459
  0
LINE
  5
3A3
100
AcDbEntity
  8
0
100
AcDbLine
 62
7
  6
CONTINUOUS
 10
3053.0354952611
 20
354.6751881622
 11
3053.0354952611
 21
358.3686510614
  0
LINE
  5
3A4
100
AcDbEntity
  8
0
100
AcDbLine
 62
7
  6
CONTINUOUS
 10
3072.9586442051
 20
333.1550307376
 11
3072.9586442051
 21
351.1273996086
  0
LINE
  5
3A5
100
AcDbEntity
  8
0
100
AcDbLine
 62
7
  6
CONTINUOUS
 10
3118.2866913635
 20
325.888538239
 11
3118.2866913635
 21
329.5350269814
  0
LINE
  5
3A6
100
AcDbEntity
  8
0
100
AcDbLine
 62
7
  6
CONTINUOUS
 10
3118.2866913635
 20
354.7474033801
 11
3118.2866913635
 21
358.3686511081
  0
LWPOLYLINE
  5
3A7
100
AcDbEntity
  8
0
100
AcDbPolyline
 62
7
  6
CONTINUOUS
 90
2
 70
0
 43
1.999999991
 10
3245.5442010803
 20
100.4125628459
 10
3245.5442010803
 20
75.0125628459
  0
LWPOLYLINE
  5
3A8
100
AcDbEntity
  8
0
100
AcDbPolyline
 62
7
  6
CONTINUOUS
 90
2
 70
0
 43
1.999999991
 10
3299.6128210891
 20
151.2125628459
 10
3299.6128210891
 20
100.4125628459
  0
LWPOLYLINE
  5
3A9
100
AcDbEntity
  8
0
100
AcDbPolyline
 62
7
  6
CONTINUOUS
 90
2
 70
0
 43
1.999999991
 10
3383.9947637795
 20
75.0125628459
 10
3383.9947637795
 20
2167.9725628459
  0
LWPOLYLINE
  5
3AA
100
AcDbEntity
  8
0
100
AcDbPolyline
 62
7
  6
CONTINUOUS
 90
2
 70
0
 43
1.999999991
 10
3396.6947637795
 20
1128.8249112643
 10
3396.6947637795
 20
1114.1602144267
  0
LINE
  5
3AB
100
AcDbEntity
  8
6_ALL_SURFS
100
AcDbLine
 62
7
  6
CONTINUOUS
 10
1100.5036809585
 20
766.8967604283
 11
1133.5453503989
 21
766.8967604283
  0
LINE
  5
3AC
100
AcDbEntity
  8
0
100
AcDbLine
 62
7
  6
CONTINUOUS
 10
1340.5453503989
 20
766.8967604283
 11
1373.5870198394
 21
766.8967604283
  0
LINE
  5
3AD
100
AcDbEntity
  8
6_ALL_SURFS
100
AcDbLine
 62
7
  6
CONTINUOUS
 10
1081.0453503989
 20
771.8967604283
 11
1355.0453503989
 21
771.8967604283
  0
LINE
  5
3AE
100
AcDbEntity
  8
0
100
AcDbLine
 62
7
  6
CONTINUOUS
 10
1355.0453503989
 20
771.8967604283
 11
1393.0453503989
 21
771.8967604283
  0
LINE
  5
3AF
100
AcDbEntity
  8
6_ALL_SURFS
100
AcDbLine
 62
7
  6
CONTINUOUS
 10
1355.0453503989
 20
777.3967604283
 11
1119.0453503989
 21
777.3967604283
  0
LINE
  5
3B0
100
AcDbEntity
  8
0
100
AcDbLine
 62
7
  6
CONTINUOUS
 10
1119.0453503989
 20
777.3967604283
 11
1086.7240051744
 21
777.3967604283
  0
LINE
  5
3B1
100
AcDbEntity
  8
0
100
AcDbLine
 62
7
  6
CONTINUOUS
 10
1355.0453503989
 20
777.3967604283
 11
1387.3666956235
 21
777.3967604283
  0
LINE
  5
3B2
100
AcDbEntity
  8
6_ALL_SURFS
100
AcDbLine
 62
7
  6
CONTINUOUS
 10
1100.1637154954
 20
771.8967604283
 11
1101.0453503989
 21
766.8967604283
  0
LINE
  5
3B3
100
AcDbEntity
  8
6_ALL_SURFS
100
AcDbLine
 62
7
  6
CONTINUOUS
 10
1100.0627163332
 20
771.8967604283
 11
1100.5036809585
 21
766.8967604283
  0
LINE
  5
3B4
100
AcDbEntity
  8
6_ALL_SURFS
100
AcDbLine
 62
7
  6
CONTINUOUS
 10
1081.0453503989
 20
771.8967604283
 11
1081.0453503989
 21
1228.8967604283
  0
LINE
  5
3B5
100
AcDbEntity
  8
0
100
AcDbLine
 62
7
  6
CONTINUOUS
 10
1086.7240051744
 20
777.3967604283
 11
1086.7240051744
 21
1223.3967604283
  0
LINE
  5
3B6
100
AcDbEntity
  8
0
100
AcDbLine
 62
7
  6
CONTINUOUS
 10
1089.7240051744
 20
777.3967604283
 11
1089.7240051744
 21
1223.3967604283
  0
LINE
  5
3B7
100
AcDbEntity
  8
6_ALL_SURFS
100
AcDbLine
 62
7
  6
CONTINUOUS
 10
1119.0453503989
 20
771.8967604283
 11
1119.0453503989
 21
777.3967604283
  0
LINE
  5
3B8
100
AcDbEntity
  8
6_ALL_SURFS
100
AcDbLine
 62
7
  6
CONTINUOUS
 10
1119.0453503989
 20
1223.3967604283
 11
1119.0453503989
 21
1228.8967604283
  0
LINE
  5
3B9
100
AcDbEntity
  8
6_ALL_SURFS
100
AcDbLine
 62
7
  6
CONTINUOUS
 10
1133.5453503989
 20
771.8967604283
 11
1133.5453503989
 21
766.8967604283
  0
LINE
  5
3BA
100
AcDbEntity
  8
6_ALL_SURFS
100
AcDbLine
 62
7
  6
CONTINUOUS
 10
1131.0453503989
 20
766.8967604283
 11
1131.9269853025
 21
771.8967604283
  0
LINE
  5
3BB
100
AcDbEntity
  8
0
100
AcDbLine
 62
7
  6
CONTINUOUS
 10
1343.0453503989
 20
766.8967604283
 11
1342.1637154954
 21
771.8967604283
  0
LINE
  5
3BC
100
AcDbEntity
  8
0
100
AcDbLine
 62
7
  6
CONTINUOUS
 10
1340.5453503989
 20
771.8967604283
 11
1340.5453503989
 21
766.8967604283
  0
LINE
  5
3BD
100
AcDbEntity
  8
6_ALL_SURFS
100
AcDbLine
 62
7
  6
CONTINUOUS
 10
1355.0453503989
 20
771.8967604283
 11
1355.0453503989
 21
777.3967604283
  0
LINE
  5
3BE
100
AcDbEntity
  8
6_ALL_SURFS
100
AcDbLine
 62
7
  6
CONTINUOUS
 10
1355.0453503989
 20
1223.3967604283
 11
1355.0453503989
 21
1228.8967604283
  0
LINE
  5
3BF
100
AcDbEntity
  8
0
100
AcDbLine
 62
7
  6
CONTINUOUS
 10
1384.3666956235
 20
777.3967604283
 11
1384.3666956235
 21
1223.3967604283
  0
LINE
  5
3C0
100
AcDbEntity
  8
0
100
AcDbLine
 62
7
  6
CONTINUOUS
 10
1387.3666956235
 20
777.3967604283
 11
1387.3666956235
 21
1223.3967604283
  0
LINE
  5
3C1
100
AcDbEntity
  8
0
100
AcDbLine
 62
7
  6
CONTINUOUS
 10
1393.0453503989
 20
771.8967604283
 11
1393.0453503989
 21
1228.8967604283
  0
LINE
  5
3C2
100
AcDbEntity
  8
0
100
AcDbLine
 62
7
  6
CONTINUOUS
 10
1374.0279844646
 20
771.8967604283
 11
1373.5870198394
 21
766.8967604283
  0
LINE
  5
3C3
100
AcDbEntity
  8
0
100
AcDbLine
 62
7
  6
CONTINUOUS
 10
1373.9269853025
 20
771.8967604283
 11
1373.0453503989
 21
766.8967604283
  0
LINE
  5
3C4
100
AcDbEntity
  8
0
100
AcDbLine
 62
7
  6
CONTINUOUS
 10
1119.0453503989
 20
1223.3967604283
 11
1086.7240051744
 21
1223.3967604283
  0
LINE
  5
3C5
100
AcDbEntity
  8
6_ALL_SURFS
100
AcDbLine
 62
7
  6
CONTINUOUS
 10
1119.0453503989
 20
1223.3967604283
 11
1355.0453503989
 21
1223.3967604283
  0
LINE
  5
3C6
100
AcDbEntity
  8
0
100
AcDbLine
 62
7
  6
CONTINUOUS
 10
1355.0453503989
 20
1223.3967604283
 11
1387.3666956235
 21
1223.3967604283
  0
LINE
  5
3C7
100
AcDbEntity
  8
6_ALL_SURFS
100
AcDbLine
 62
7
  6
CONTINUOUS
 10
1355.0453503989
 20
1228.8967604283
 11
1081.0453503989
 21
1228.8967604283
  0
LINE
  5
3C8
100
AcDbEntity
  8
0
100
AcDbLine
 62
7
  6
CONTINUOUS
 10
1355.0453503989
 20
1228.8967604283
 11
1393.0453503989
 21
1228.8967604283
  0
LINE
  5
3C9
100
AcDbEntity
  8
6_ALL_SURFS
100
AcDbLine
 62
7
  6
CONTINUOUS
 10
1148.1787844189
 20
1769.0445497496
 11
1148.2048449501
 21
1741.2699126697
  0
LINE
  5
3CA
100
AcDbEntity
  8
6_ALL_SURFS
100
AcDbLine
 62
7
  6
CONTINUOUS
 10
1148.2641670889
 20
1739.7779088899
 11
1162.1634901059
 21
1557.5522220567
  0
LINE
  5
3CB
100
AcDbEntity
  8
6_ALL_SURFS
100
AcDbLine
 62
7
  6
CONTINUOUS
 10
1159.5453503989
 20
1740.0467500317
 11
1159.5453503989
 21
1769.9933618391
  0
LINE
  5
3CC
100
AcDbEntity
  8
6_ALL_SURFS
100
AcDbLine
 62
7
  6
CONTINUOUS
 10
1081.7699969511
 20
1528.7776618477
 11
1392.3207038468
 21
1528.7776618477
  0
LINE
  5
3CD
100
AcDbEntity
  8
6_ALL_SURFS
100
AcDbLine
 62
7
  6
CONTINUOUS
 10
1220.0453503989
 20
1540.5467500317
 11
1175.539898279
 21
1540.5467500317
  0
LINE
  5
3CE
100
AcDbEntity
  8
0
100
AcDbLine
 62
7
  6
CONTINUOUS
 10
1254.0453503989
 20
1540.5467500317
 11
1298.5508025189
 21
1540.5467500317
  0
LINE
  5
3CF
100
AcDbEntity
  8
6_ALL_SURFS
100
AcDbLine
 62
7
  6
CONTINUOUS
 10
1154.481146148
 20
1769.5867573405
 11
1157.5235088946
 21
1740.0467500317
  0
LINE
  5
3D0
100
AcDbEntity
  8
6_ALL_SURFS
100
AcDbLine
 62
9
  6
CONTINUOUS
 10
1158.6290335961
 20
1740.0467500317
 11
1168.349253334
 21
1601.3797423185
  0
LINE
  5
3D1
100
AcDbEntity
  8
6_ALL_SURFS
100
AcDbLine
 62
9
  6
CONTINUOUS
 10
1168.2290462757
 20
1596.1830757058
 11
1162.1634901059
 21
1557.5522220567
  0
LINE
  5
3D2
100
AcDbEntity
  8
6_ALL_SURFS
100
AcDbLine
 62
9
  6
CONTINUOUS
 10
1173.1939748139
 20
1740.0467500317
 11
1182.8992724761
 21
1601.5926181215
  0
LINE
  5
3D3
100
AcDbEntity
  8
6_ALL_SURFS
100
AcDbLine
 62
9
  6
CONTINUOUS
 10
1182.7790654179
 20
1586.6522016099
 11
1175.539898279
 21
1540.5467500317
  0
LINE
  5
3D4
100
AcDbEntity
  8
0
100
AcDbLine
 62
7
  6
CONTINUOUS
 10
1259.7721908072
 20
1696.5467500317
 11
1257.7270616959
 21
1694.142429903
  0
LINE
  5
3D5
100
AcDbEntity
  8
6_ALL_SURFS
100
AcDbLine
 62
9
  6
CONTINUOUS
 10
1291.31163538
 20
1586.6522016099
 11
1256.1474351043
 21
1586.6522016099
  0
LINE
  5
3D6
100
AcDbEntity
  8
6_ALL_SURFS
100
AcDbLine
 62
9
  6
CONTINUOUS
 10
1217.9432656936
 20
1586.6522016099
 11
1182.7790654179
 21
1586.6522016099
  0
LINE
  5
3D7
100
AcDbEntity
  8
6_ALL_SURFS
100
AcDbLine
 62
7
  6
CONTINUOUS
 10
1220.0453503989
 20
1540.5467500317
 11
1216.712536027
 21
1572.5467500317
  0
LINE
  5
3D8
100
AcDbEntity
  8
6_ALL_SURFS
100
AcDbLine
 62
7
  6
CONTINUOUS
 10
1214.3185099906
 20
1696.5467500317
 11
1214.2302531411
 21
1728.5467500317
  0
LINE
  5
3D9
100
AcDbEntity
  8
6_ALL_SURFS
100
AcDbLine
 62
7
  6
CONTINUOUS
 10
1217.9432656936
 20
1677.061748146
 11
1217.9432656936
 21
1583.1320882387
  0
LINE
  5
3DA
100
AcDbEntity
  8
6_ALL_SURFS
100
AcDbLine
 62
7
  6
CONTINUOUS
 10
1220.0453503989
 20
1540.5467500317
 11
1220.0453503989
 21
1684.5562391166
  0
LINE
  5
3DB
100
AcDbEntity
  8
0
100
AcDbLine
 62
7
  6
CONTINUOUS
 10
1256.7060997817
 20
1719.2382831233
 11
1259.8604476567
 21
1728.5467500317
  0
LINE
  5
3DC
100
AcDbEntity
  8
6_ALL_SURFS
100
AcDbLine
 62
9
  6
CONTINUOUS
 10
1291.1914283218
 20
1601.5926181215
 11
1256.1474351043
 21
1601.5926181215
  0
LINE
  5
3DD
100
AcDbEntity
  8
6_ALL_SURFS
100
AcDbLine
 62
9
  6
CONTINUOUS
 10
1217.9432656936
 20
1601.5926181215
 11
1182.8992724761
 21
1601.5926181215
  0
LINE
  5
3DE
100
AcDbEntity
  8
0
100
AcDbLine
 62
7
  6
CONTINUOUS
 10
1257.1526316334
 20
1572.7339473841
 11
1257.3781647709
 21
1572.5467500317
  0
LINE
  5
3DF
100
AcDbEntity
  8
6_ALL_SURFS
100
AcDbLine
 62
7
  6
CONTINUOUS
 10
1217.3846010162
 20
1719.2382831233
 11
1214.2302531411
 21
1728.5467500317
  0
LINE
  5
3E0
100
AcDbEntity
  8
0
100
AcDbLine
 62
7
  6
CONTINUOUS
 10
1254.0453503989
 20
1540.5467500317
 11
1254.0453503989
 21
1684.5562391166
  0
LINE
  5
3E1
100
AcDbEntity
  8
0
100
AcDbLine
 62
7
  6
CONTINUOUS
 10
1256.1474351043
 20
1677.061748146
 11
1256.1474351043
 21
1583.1320882387
  0
LINE
  5
3E2
100
AcDbEntity
  8
0
100
AcDbLine
 62
7
  6
CONTINUOUS
 10
1259.7721908072
 20
1696.5467500317
 11
1259.8604476567
 21
1728.5467500317
  0
LINE
  5
3E3
100
AcDbEntity
  8
0
100
AcDbLine
 62
7
  6
CONTINUOUS
 10
1254.0453503989
 20
1540.5467500317
 11
1257.3781647709
 21
1572.5467500317
  0
LINE
  5
3E4
100
AcDbEntity
  8
6_ALL_SURFS
100
AcDbLine
 62
7
  6
CONTINUOUS
 10
1216.9380691645
 20
1572.7339473841
 11
1216.712536027
 21
1572.5467500317
  0
LINE
  5
3E5
100
AcDbEntity
  8
6_ALL_SURFS
100
AcDbLine
 62
7
  6
CONTINUOUS
 10
1214.3185099906
 20
1696.5467500317
 11
1216.363639102
 21
1694.142429903
  0
LINE
  5
3E6
100
AcDbEntity
  8
7_ALL_ROUNDS
100
AcDbLine
 62
9
  6
CONTINUOUS
 10
1300.896725984
 20
1740.0467500317
 11
1291.1914283218
 21
1601.5926181215
  0
LINE
  5
3E7
100
AcDbEntity
  8
7_ALL_ROUNDS
100
AcDbLine
 62
9
  6
CONTINUOUS
 10
1291.31163538
 20
1586.6522016099
 11
1298.5508025189
 21
1540.5467500317
  0
LINE
  5
3E8
100
AcDbEntity
  8
7_ALL_ROUNDS
100
AcDbLine
 62
9
  6
CONTINUOUS
 10
1315.4616672018
 20
1740.0467500317
 11
1305.7414474639
 21
1601.3797423185
  0
LINE
  5
3E9
100
AcDbEntity
  8
6_ALL_SURFS
100
AcDbLine
 62
7
  6
CONTINUOUS
 10
1319.6095546499
 20
1769.5867573405
 11
1316.5671919033
 21
1740.0467500317
  0
LINE
  5
3EA
100
AcDbEntity
  8
6_ALL_SURFS
100
AcDbLine
 62
9
  6
CONTINUOUS
 10
1254.0453503989
 20
1684.5562391166
 11
1220.0453503989
 21
1684.5562391166
  0
LINE
  5
3EB
100
AcDbEntity
  8
7_ALL_ROUNDS
100
AcDbLine
 62
9
  6
CONTINUOUS
 10
1305.8616545222
 20
1596.1830757058
 11
1311.927210692
 21
1557.5522220567
  0
LINE
  5
3EC
100
AcDbEntity
  8
0
100
AcDbLine
 62
7
  6
CONTINUOUS
 10
1314.5453503989
 20
1740.0467500317
 11
1314.5453503989
 21
1769.9933618391
  0
LINE
  5
3ED
100
AcDbEntity
  8
7_ALL_ROUNDS
100
AcDbLine
 62
7
  6
CONTINUOUS
 10
1325.911916379
 20
1769.0445497496
 11
1325.8858558478
 21
1741.2699126697
  0
LINE
  5
3EE
100
AcDbEntity
  8
7_ALL_ROUNDS
100
AcDbLine
 62
7
  6
CONTINUOUS
 10
1325.826533709
 20
1739.7779088899
 11
1311.927210692
 21
1557.5522220567
  0
LINE
  5
3EF
100
AcDbEntity
  8
6_ALL_SURFS
100
AcDbLine
 62
9
  6
CONTINUOUS
 10
1256.7060997817
 20
1719.2382831233
 11
1217.3846010162
 21
1719.2382831233
  0
LINE
  5
3F0
100
AcDbEntity
  8
6_ALL_SURFS
100
AcDbLine
 62
7
  6
CONTINUOUS
 10
1214.2302531411
 20
1728.5467500317
 11
1259.8604476567
 21
1728.5467500317
  0
LINE
  5
3F1
100
AcDbEntity
  8
7_ALL_ROUNDS
100
AcDbLine
 62
9
  6
CONTINUOUS
 10
1369.8532909261
 20
1739.7779088899
 11
1325.826533709
 21
1739.7779088899
  0
LINE
  5
3F2
100
AcDbEntity
  8
6_ALL_SURFS
100
AcDbLine
 62
9
  6
CONTINUOUS
 10
1104.2374098718
 20
1739.7779088899
 11
1148.2641670889
 21
1739.7779088899
  0
LINE
  5
3F3
100
AcDbEntity
  8
6_ALL_SURFS
100
AcDbLine
 62
7
  6
CONTINUOUS
 10
1157.5235088946
 20
1740.0467500317
 11
1300.896725984
 21
1740.0467500317
  0
LINE
  5
3F4
100
AcDbEntity
  8
7_ALL_ROUNDS
100
AcDbLine
 62
7
  6
CONTINUOUS
 10
1300.896725984
 20
1740.0467500317
 11
1316.5671919033
 21
1740.0467500317
  0
LINE
  5
3F5
100
AcDbEntity
  8
7_ALL_ROUNDS
100
AcDbLine
 62
9
  6
CONTINUOUS
 10
1369.5621285936
 20
1741.2699126697
 11
1325.8858558478
 21
1741.2699126697
  0
LINE
  5
3F6
100
AcDbEntity
  8
6_ALL_SURFS
100
AcDbLine
 62
9
  6
CONTINUOUS
 10
1104.5285722043
 20
1741.2699126697
 11
1148.2048449501
 21
1741.2699126697
  0
LINE
  5
3F7
100
AcDbEntity
  8
0
100
AcDbLine
 62
7
  6
CONTINUOUS
 10
1861.0821477985
 20
766.8967604283
 11
1831.0821477985
 21
766.8967604283
  0
LINE
  5
3F8
100
AcDbEntity
  8
0
100
AcDbLine
 62
7
  6
CONTINUOUS
 10
1967.7218937607
 20
766.8967604283
 11
1987.7218937607
 21
766.8967604283
  0
LINE
  5
3F9
100
AcDbEntity
  8
0
100
AcDbLine
 62
7
  6
CONTINUOUS
 10
1813.6130596145
 20
771.8967604283
 11
1848.3821477985
 21
771.8967604283
  0
LINE
  5
3FA
100
AcDbEntity
  8
7_ALL_ROUNDS
100
AcDbLine
 62
7
  6
CONTINUOUS
 10
1848.3821477985
 20
771.8967604283
 11
1985.0424018363
 21
771.8967604283
  0
LINE
  5
3FB
100
AcDbEntity
  8
0
100
AcDbLine
 62
7
  6
CONTINUOUS
 10
1813.6130596145
 20
777.3967604283
 11
1835.8821477985
 21
777.3967604283
  0
LINE
  5
3FC
100
AcDbEntity
  8
0
100
AcDbLine
 62
7
  6
CONTINUOUS
 10
1830.200512895
 20
771.8967604283
 11
1831.0821477985
 21
766.8967604283
  0
LINE
  5
3FD
100
AcDbEntity
  8
6_ALL_SURFS
100
AcDbLine
 62
7
  6
CONTINUOUS
 10
1813.6130596145
 20
771.8967604283
 11
1813.6130596145
 21
777.3967604283
  0
LINE
  5
3FE
100
AcDbEntity
  8
6_ALL_SURFS
100
AcDbLine
 62
7
  6
CONTINUOUS
 10
1813.6130596145
 20
1223.3967604283
 11
1813.6130596145
 21
1228.8967604283
  0
LINE
  5
3FF
100
AcDbEntity
  8
0
100
AcDbLine
 62
7
  6
CONTINUOUS
 10
1963.5263956048
 20
771.8967604283
 11
1967.7218937607
 21
766.8967604283
  0
LINE
  5
400
100
AcDbEntity
  8
0
100
AcDbLine
 62
7
  6
CONTINUOUS
 10
1835.8821477985
 20
777.3967604283
 11
1835.8821477985
 21
1223.3967604283
  0
LINE
  5
401
100
AcDbEntity
  8
0
100
AcDbLine
 62
7
  6
CONTINUOUS
 10
2089.3821477985
 20
860.4221577578
 11
2102.8287596059
 21
859.4818790627
  0
LINE
  5
402
100
AcDbEntity
  8
0
100
AcDbLine
 62
7
  6
CONTINUOUS
 10
1848.3821477985
 20
771.8967604283
 11
1848.3821477985
 21
1228.8967604283
  0
LINE
  5
403
100
AcDbEntity
  8
0
100
AcDbLine
 62
7
  6
CONTINUOUS
 10
1861.963782702
 20
771.8967604283
 11
1861.0821477985
 21
766.8967604283
  0
LINE
  5
404
100
AcDbEntity
  8
0
100
AcDbLine
 62
7
  6
CONTINUOUS
 10
2068.300386781
 20
819.1922777564
 11
2071.9606408189
 21
815.5320237185
  0
LINE
  5
405
100
AcDbEntity
  8
0
100
AcDbLine
 62
7
  6
CONTINUOUS
 10
2005.0424018363
 20
776.8967604283
 11
2006.1758098209
 21
783.3246365251
  0
LINE
  5
406
100
AcDbEntity
  8
0
100
AcDbLine
 62
7
  6
CONTINUOUS
 10
2094.2811488945
 20
834.1922777564
 11
2095.6208948567
 21
829.1922777564
  0
LINE
  5
407
100
AcDbEntity
  8
0
100
AcDbLine
 62
9
  6
CONTINUOUS
 10
2070.8821477985
 20
820.6828581748
 11
2070.8821477985
 21
1219.7598747165
  0
LINE
  5
408
100
AcDbEntity
  8
0
100
AcDbLine
 62
7
  6
CONTINUOUS
 10
2089.3821477985
 20
860.4221577578
 11
2089.3821477985
 21
1181.3713630987
  0
LINE
  5
409
100
AcDbEntity
  8
0
100
AcDbLine
 62
7
  6
CONTINUOUS
 10
2098.3821477985
 20
836.5599905775
 11
2098.3821477985
 21
859.7928164503
  0
LINE
  5
40A
100
AcDbEntity
  8
0
100
AcDbLine
 62
7
  6
CONTINUOUS
 10
2098.3821477985
 20
1182.0007044062
 11
2098.3821477985
 21
1210.5514665026
  0
LINE
  5
40B
100
AcDbEntity
  8
0
100
AcDbLine
 62
7
  6
CONTINUOUS
 10
2102.8287596059
 20
839.1272431015
 11
2102.8287596059
 21
859.4818790627
  0
LINE
  5
40C
100
AcDbEntity
  8
0
100
AcDbLine
 62
7
  6
CONTINUOUS
 10
2089.3821477985
 20
1181.3713630987
 11
2098.3821477985
 21
1182.0007044062
  0
LINE
  5
40D
100
AcDbEntity
  8
6_ALL_SURFS
100
AcDbLine
 62
7
  6
CONTINUOUS
 10
2098.3821477985
 20
1182.0007044062
 11
2102.4221551073
 21
1182.2832092375
  0
LINE
  5
40E
100
AcDbEntity
  8
7_ALL_ROUNDS
100
AcDbLine
 62
7
  6
CONTINUOUS
 10
1987.5424018363
 20
772.5666334093
 11
2070.8821477985
 21
820.6828581748
  0
LINE
  5
40F
100
AcDbEntity
  8
0
100
AcDbLine
 62
7
  6
CONTINUOUS
 10
2070.8821477985
 20
820.6828581748
 11
2102.8287596059
 21
839.1272431015
  0
LINE
  5
410
100
AcDbEntity
  8
0
100
AcDbLine
 62
7
  6
CONTINUOUS
 10
2095.6208948567
 20
829.1922777564
 11
2071.9606408189
 21
815.5320237185
  0
LINE
  5
411
100
AcDbEntity
  8
0
100
AcDbLine
 62
7
  6
CONTINUOUS
 10
1987.7218937607
 20
766.8967604283
 11
2005.0424018363
 21
776.8967604283
  0
LINE
  5
412
100
AcDbEntity
  8
0
100
AcDbLine
 62
7
  6
CONTINUOUS
 10
1813.6130596145
 20
1223.3967604283
 11
1835.8821477985
 21
1223.3967604283
  0
LINE
  5
413
100
AcDbEntity
  8
0
100
AcDbLine
 62
7
  6
CONTINUOUS
 10
1813.6130596145
 20
1228.8967604283
 11
1848.3821477985
 21
1228.8967604283
  0
LINE
  5
414
100
AcDbEntity
  8
6_ALL_SURFS
100
AcDbLine
 62
7
  6
CONTINUOUS
 10
1848.3821477985
 20
1228.8967604283
 11
1861.6130596145
 21
1228.8967604283
  0
LINE
  5
415
100
AcDbEntity
  8
6_ALL_SURFS
100
AcDbLine
 62
7
  6
CONTINUOUS
 10
1861.6130596145
 20
1228.8967604283
 11
2070.8821477985
 21
1219.7598747165
  0
LINE
  5
416
100
AcDbEntity
  8
7_ALL_ROUNDS
100
AcDbLine
 62
7
  6
CONTINUOUS
 10
2070.8821477985
 20
1219.7598747165
 11
2072.6133066568
 21
1219.6842906885
  0
LINE
  5
417
100
AcDbEntity
  8
7_ALL_ROUNDS
100
AcDbLine
 62
7
  6
CONTINUOUS
 10
2074.1053104366
 20
1219.3875126845
 11
2098.3821477985
 21
1210.5514665026
  0
LINE
  5
418
100
AcDbEntity
  8
6_ALL_SURFS
100
AcDbLine
 62
7
  6
CONTINUOUS
 10
2098.3821477985
 20
1210.5514665026
 11
2101.8799475164
 21
1209.2783715199
  0
LINE
  5
419
100
AcDbEntity
  8
0
100
AcDbLine
 62
7
  6
CONTINUOUS
 10
2973.5216160421
 20
1352.8898299665
 11
2765.1777715984
 21
1473.2087047698
  0
LINE
  5
41A
100
AcDbEntity
  8
6_ALL_SURFS
100
AcDbLine
 62
7
  6
CONTINUOUS
 10
2973.9661248068
 20
1907.0528871518
 11
2854.9414114999
 21
1833.4595342055
  0
LINE
  5
41B
100
AcDbEntity
  8
6_ALL_SURFS
100
AcDbLine
 62
7
  6
CONTINUOUS
 10
2761.8376336491
 20
1836.6970498612
 11
2761.8376336491
 21
1832.2069067844
  0
LINE
  5
41C
100
AcDbEntity
  8
6_ALL_SURFS
100
AcDbLine
 62
7
  6
CONTINUOUS
 10
2761.8376336491
 20
1468.0971227348
 11
2761.8376336491
 21
1463.6069796579
  0
LINE
  5
41D
100
AcDbEntity
  8
0
100
AcDbLine
 62
7
  6
CONTINUOUS
 10
2763.0564512549
 20
1474.43377037
 11
2763.0564512549
 21
1826.2656927065
  0
LINE
  5
41E
100
AcDbEntity
  8
0
100
AcDbLine
 62
7
  6
CONTINUOUS
 10
2765.1777715984
 20
1473.2087047698
 11
2765.1777715984
 21
1822.0836031722
  0
LINE
  5
41F
100
AcDbEntity
  8
6_ALL_SURFS
100
AcDbLine
 62
9
  6
CONTINUOUS
 10
2981.4852915945
 20
1866.8725904719
 11
2890.306143405
 21
1814.1940508664
  0
LINE
  5
420
100
AcDbEntity
  8
6_ALL_SURFS
100
AcDbLine
 62
7
  6
CONTINUOUS
 10
2770.1644703745
 20
1447.6513399375
 11
2770.1644703745
 21
1452.1414830143
  0
LINE
  5
421
100
AcDbEntity
  8
6_ALL_SURFS
100
AcDbLine
 62
7
  6
CONTINUOUS
 10
2770.1644703745
 20
1816.2512670639
 11
2770.1644703745
 21
1820.7414101408
  0
LINE
  5
422
100
AcDbEntity
  8
6_ALL_SURFS
100
AcDbLine
 62
7
  6
CONTINUOUS
 10
2999.4402317367
 20
1886.1528938889
 11
2980.7035675813
 21
1871.1613477246
  0
LINE
  5
423
100
AcDbEntity
  8
6_ALL_SURFS
100
AcDbLine
 62
7
  6
CONTINUOUS
 10
2883.8453828346
 20
1803.4850514944
 11
2985.6754691217
 21
1857.1589517518
  0
LINE
  5
424
100
AcDbEntity
  8
0
100
AcDbLine
 62
7
  6
CONTINUOUS
 10
2907.8870133949
 20
1789.6009746925
 11
3009.7170996821
 21
1843.2748749499
  0
LINE
  5
425
100
AcDbEntity
  8
0
100
AcDbLine
 62
7
  6
CONTINUOUS
 10
3005.904092645
 20
1823.2798513157
 11
2939.48579317
 21
1788.2712471667
  0
LINE
  5
426
100
AcDbEntity
  8
0
100
AcDbLine
 62
7
  6
CONTINUOUS
 10
3022.2451589475
 20
1800.8800809996
 11
3044.9349829623
 21
1812.0846064403
  0
LINE
  5
427
100
AcDbEntity
  8
7_ALL_ROUNDS
100
AcDbLine
 62
7
  6
CONTINUOUS
 10
3099.5216783274
 20
1834.5443714083
 11
2960.840353902
 21
1772.3027401245
  0
LINE
  5
428
100
AcDbEntity
  8
0
100
AcDbLine
 62
7
  6
CONTINUOUS
 10
2807.7125915223
 20
1635.6256015873
 11
2811.9552322094
 21
1638.0757327877
  0
LINE
  5
429
100
AcDbEntity
  8
0
100
AcDbLine
 62
9
  6
CONTINUOUS
 10
2822.1186230501
 20
1621.9976056505
 11
2822.1830155564
 21
1622.0415380824
  0
LINE
  5
42A
100
AcDbEntity
  8
0
100
AcDbLine
 62
9
  6
CONTINUOUS
 10
2822.11585183
 20
1622.0023983536
 11
2822.1831490998
 21
1622.0413067276
  0
LINE
  5
42B
100
AcDbEntity
  8
0
100
AcDbLine
 62
9
  6
CONTINUOUS
 10
2822.6804957032
 20
1621.174059426
 11
2822.6833777112
 21
1621.1757215165
  0
LINE
  5
42C
100
AcDbEntity
  8
0
100
AcDbLine
 62
7
  6
CONTINUOUS
 10
2932.8439785422
 20
1776.1700392287
 11
2932.8579874955
 21
1775.1802006373
  0
LINE
  5
42D
100
AcDbEntity
  8
6_ALL_SURFS
100
AcDbLine
 62
7
  6
CONTINUOUS
 10
2937.0416707345
 20
1351.2795127243
 11
2937.0416707345
 21
1355.7696558012
  0
LINE
  5
42E
100
AcDbEntity
  8
6_ALL_SURFS
100
AcDbLine
 62
7
  6
CONTINUOUS
 10
2937.0416707345
 20
1719.8794398508
 11
2937.0416707345
 21
1724.3695829276
  0
LINE
  5
42F
100
AcDbEntity
  8
0
100
AcDbLine
 62
7
  6
CONTINUOUS
 10
2973.5216160421
 20
1352.8898299665
 11
2973.5216160421
 21
1715.6011391134
  0
LINE
  5
430
100
AcDbEntity
  8
0
100
AcDbLine
 62
7
  6
CONTINUOUS
 10
2975.6429363856
 20
1351.6647643663
 11
2975.6429363856
 21
1715.774548416
  0
LINE
  5
431
100
AcDbEntity
  8
0
100
AcDbLine
 62
7
  6
CONTINUOUS
 10
2988.4971864502
 20
1349.9601530833
 11
2988.4971864502
 21
1723.0502232866
  0
LINE
  5
432
100
AcDbEntity
  8
0
100
AcDbLine
 62
7
  6
CONTINUOUS
 10
2763.0564512549
 20
1474.43377037
 11
2765.1777715984
 21
1475.6588359702
  0
LINE
  5
433
100
AcDbEntity
  8
6_ALL_SURFS
100
AcDbLine
 62
7
  6
CONTINUOUS
 10
2980.7035675813
 20
1871.1613477246
 11
2981.4852915945
 21
1866.8725904719
  0
LINE
  5
434
100
AcDbEntity
  8
6_ALL_SURFS
100
AcDbLine
 62
7
  6
CONTINUOUS
 10
2777.7479406774
 20
1855.5640441578
 11
2997.3404514256
 21
1728.749048116
  0
LINE
  5
435
100
AcDbEntity
  8
6_ALL_SURFS
100
AcDbLine
 62
7
  6
CONTINUOUS
 10
2883.8453828346
 20
1803.4850514944
 11
2852.3752758408
 21
1821.6590842984
  0
LINE
  5
436
100
AcDbEntity
  8
0
100
AcDbLine
 62
7
  6
CONTINUOUS
 10
2907.8870133949
 20
1789.6009746925
 11
2939.3571203887
 21
1771.4269418885
  0
LINE
  5
437
100
AcDbEntity
  8
6_ALL_SURFS
100
AcDbLine
 62
9
  6
CONTINUOUS
 10
2951.2886768611
 20
1769.728222523
 11
2933.4126077804
 21
1780.0516785553
  0
LINE
  5
438
100
AcDbEntity
  8
6_ALL_SURFS
100
AcDbLine
 62
7
  6
CONTINUOUS
 10
2852.151215989
 20
1821.791349162
 11
2852.3752758408
 21
1821.6590842984
  0
LINE
  5
439
100
AcDbEntity
  8
0
100
AcDbLine
 62
7
  6
CONTINUOUS
 10
3022.2451589475
 20
1800.8800809996
 11
3019.0989232173
 21
1816.7196321613
  0
LINE
  5
43A
100
AcDbEntity
  8
6_ALL_SURFS
100
AcDbLine
 62
9
  6
CONTINUOUS
 10
2886.5465459775
 20
1814.0993647056
 11
2854.9414114999
 21
1833.4595342055
  0
LINE
  5
43B
100
AcDbEntity
  8
0
100
AcDbLine
 62
7
  6
CONTINUOUS
 10
2926.4571177165
 20
1441.491843121
 11
2926.4148349998
 21
1441.46475711
  0
LINE
  5
43C
100
AcDbEntity
  8
0
100
AcDbLine
 62
7
  6
CONTINUOUS
 10
2926.4598186114
 20
1441.4903370156
 11
2926.4164224678
 21
1441.4652623612
  0
LINE
  5
43D
100
AcDbEntity
  8
0
100
AcDbLine
 62
9
  6
CONTINUOUS
 10
2930.4343770994
 20
1434.5478307127
 11
2930.4434051125
 21
1434.5530456775
  0
LINE
  5
43E
100
AcDbEntity
  8
0
100
AcDbLine
 62
9
  6
CONTINUOUS
 10
2926.3527156068
 20
1441.4293309478
 11
2926.4147014585
 21
1441.4649884671
  0
LINE
  5
43F
100
AcDbEntity
  8
0
100
AcDbLine
 62
9
  6
CONTINUOUS
 10
2926.3501910117
 20
1441.4337116806
 11
2926.4148349998
 21
1441.46475711
  0
LINE
  5
440
100
AcDbEntity
  8
0
100
AcDbLine
 62
7
  6
CONTINUOUS
 10
3036.1224421162
 20
1834.4278481311
 11
3044.9349829623
 21
1812.0846064403
  0
LINE
  5
441
100
AcDbEntity
  8
0
100
AcDbLine
 62
9
  6
CONTINUOUS
 10
3129.635699975
 20
1489.9989844575
 11
3129.635699975
 21
1815.801330449
  0
LINE
  5
442
100
AcDbEntity
  8
0
100
AcDbLine
 62
7
  6
CONTINUOUS
 10
3138.5908458117
 20
1532.379269936
 11
3138.5908458117
 21
1794.3988794597
  0
LINE
  5
443
100
AcDbEntity
  8
0
100
AcDbLine
 62
7
  6
CONTINUOUS
 10
2930.9867961183
 20
1422.1643159142
 11
2935.2294368054
 21
1424.6144471146
  0
LINE
  5
444
100
AcDbEntity
  8
7_ALL_ROUNDS
100
AcDbLine
 62
7
  6
CONTINUOUS
 10
3120.2766932068
 20
1837.9654052227
 11
3100.6186314043
 21
1834.8871279155
  0
LINE
  5
445
100
AcDbEntity
  8
6_ALL_SURFS
100
AcDbLine
 62
7
  6
CONTINUOUS
 10
3022.2451589475
 20
1800.8800809996
 11
2994.1687599005
 21
1817.0942425022
  0
LINE
  5
446
100
AcDbEntity
  8
0
100
AcDbLine
 62
7
  6
CONTINUOUS
 10
3141.1422323361
 20
1518.775407768
 11
3141.1422323361
 21
1537.7424463586
  0
LINE
  5
447
100
AcDbEntity
  8
0
100
AcDbLine
 62
7
  6
CONTINUOUS
 10
3141.1422323361
 20
1800.7896313422
 11
3141.1422323361
 21
1824.098178027
  0
LINE
  5
448
100
AcDbEntity
  8
6_ALL_SURFS
100
AcDbLine
 62
9
  6
CONTINUOUS
 10
3019.0989232173
 20
1816.7196321613
 11
3007.012274062
 21
1823.6996897214
  0
LINE
  5
449
100
AcDbEntity
  8
6_ALL_SURFS
100
AcDbLine
 62
7
  6
CONTINUOUS
 10
3040.473209003
 20
1823.3969504832
 11
3055.4337196879
 21
1814.7572336876
  0
LINE
  5
44A
100
AcDbEntity
  8
6_ALL_SURFS
100
AcDbLine
 62
9
  6
CONTINUOUS
 10
3009.7170996821
 20
1843.2748749499
 11
2985.6754691217
 21
1857.1589517518
  0
LINE
  5
44B
100
AcDbEntity
  8
0
100
AcDbLine
 62
7
  6
CONTINUOUS
 10
3028.2911203538
 20
1844.0828369081
 11
3002.7648002152
 21
1858.8243241124
  0
LINE
  5
44C
100
AcDbEntity
  8
0
100
AcDbLine
 62
7
  6
CONTINUOUS
 10
2973.5216160421
 20
1352.8898299665
 11
2975.6429363856
 21
1354.1148955667
  0
LINE
  5
44D
100
AcDbEntity
  8
7_ALL_ROUNDS
100
AcDbLine
 62
9
  6
CONTINUOUS
 10
3130.6532969093
 20
1816.5658161571
 11
3099.5216783274
 21
1834.5443714083
  0
LINE
  5
44E
100
AcDbEntity
  8
6_ALL_SURFS
100
AcDbLine
 62
9
  6
CONTINUOUS
 10
2942.8345062249
 20
1925.031442403
 11
2973.9661248068
 21
1907.0528871518
  0
LINE
  5
44F
100
AcDbEntity
  8
7_ALL_ROUNDS
100
AcDbLine
 62
9
  6
CONTINUOUS
 10
3131.5024200398
 20
1817.0516948207
 11
3100.6186314043
 21
1834.8871279155
  0
LINE
  5
450
100
AcDbEntity
  8
6_ALL_SURFS
100
AcDbLine
 62
9
  6
CONTINUOUS
 10
2944.0953950749
 20
1925.2795257615
 11
2974.9791837104
 21
1907.4440926667
  0
LINE
  5
451
100
AcDbEntity
  8
6_ALL_SURFS
100
AcDbLine
 62
7
  6
CONTINUOUS
 10
2994.6003903562
 20
1910.5436538808
 11
2974.9791837104
 21
1907.4440926667
  0
LINE
  5
452
100
AcDbEntity
  8
6_ALL_SURFS
100
AcDbLine
 62
7
  6
CONTINUOUS
 10
1117.4453437248
 20
250.6422824747
 11
1116.2586209129
 21
252.6038067018
  0
LINE
  5
453
100
AcDbEntity
  8
6_ALL_SURFS
100
AcDbLine
 62
7
  6
CONTINUOUS
 10
1100.0627163332
 20
376.3970357645
 11
1104.5453503989
 21
333.7476215484
  0
LINE
  5
454
100
AcDbEntity
  8
6_ALL_SURFS
100
AcDbLine
 62
7
  6
CONTINUOUS
 10
1314.5453503989
 20
267.0412835708
 11
1159.5453503989
 21
267.0412835708
  0
LINE
  5
455
100
AcDbEntity
  8
6_ALL_SURFS
100
AcDbLine
 62
7
  6
CONTINUOUS
 10
1133.5453503989
 20
376.3970357645
 11
1133.5453503989
 21
333.7476215484
  0
LINE
  5
456
100
AcDbEntity
  8
6_ALL_SURFS
100
AcDbLine
 62
7
  6
CONTINUOUS
 10
1292.5453503989
 20
283.0412835708
 11
1181.5453503989
 21
283.0412835708
  0
LINE
  5
457
100
AcDbEntity
  8
0
100
AcDbLine
 62
7
  6
CONTINUOUS
 10
1314.5453503989
 20
295.0412835708
 11
1304.5453503989
 21
295.0412835708
  0
LINE
  5
458
100
AcDbEntity
  8
6_ALL_SURFS
100
AcDbLine
 62
7
  6
CONTINUOUS
 10
1159.5453503989
 20
295.0412835708
 11
1169.5453503989
 21
295.0412835708
  0
LINE
  5
459
100
AcDbEntity
  8
6_ALL_SURFS
100
AcDbLine
 62
7
  6
CONTINUOUS
 10
1159.5453503989
 20
237.0946717634
 11
1159.5453503989
 21
361.5812835708
  0
LINE
  5
45A
100
AcDbEntity
  8
6_ALL_SURFS
100
AcDbLine
 62
7
  6
CONTINUOUS
 10
1133.5453503989
 20
333.7476215484
 11
1104.5453503989
 21
333.7476215484
  0
LINE
  5
45B
100
AcDbEntity
  8
0
100
AcDbLine
 62
7
  6
CONTINUOUS
 10
1340.5453503989
 20
333.7476215484
 11
1369.5453503989
 21
333.7476215484
  0
LINE
  5
45C
100
AcDbEntity
  8
6_ALL_SURFS
100
AcDbLine
 62
7
  6
CONTINUOUS
 10
1133.5453503989
 20
334.881029533
 11
1104.4262244195
 21
334.881029533
  0
LINE
  5
45D
100
AcDbEntity
  8
0
100
AcDbLine
 62
7
  6
CONTINUOUS
 10
1340.5453503989
 20
334.881029533
 11
1369.6644763784
 21
334.881029533
  0
LINE
  5
45E
100
AcDbEntity
  8
6_ALL_SURFS
100
AcDbLine
 62
7
  6
CONTINUOUS
 10
1133.5453503989
 20
352.2015376086
 11
1102.6057656638
 21
352.2015376086
  0
LINE
  5
45F
100
AcDbEntity
  8
0
100
AcDbLine
 62
7
  6
CONTINUOUS
 10
1340.5453503989
 20
352.2015376086
 11
1371.4849351341
 21
352.2015376086
  0
LINE
  5
460
100
AcDbEntity
  8
6_ALL_SURFS
100
AcDbLine
 62
9
  6
CONTINUOUS
 10
1159.5453503989
 20
352.381029533
 11
1133.5453503989
 21
352.381029533
  0
LINE
  5
461
100
AcDbEntity
  8
6_ALL_SURFS
100
AcDbLine
 62
9
  6
CONTINUOUS
 10
1102.5869003023
 20
352.381029533
 11
1092.6847597335
 21
352.381029533
  0
LINE
  5
462
100
AcDbEntity
  8
0
100
AcDbLine
 62
9
  6
CONTINUOUS
 10
1314.5453503989
 20
352.381029533
 11
1340.5453503989
 21
352.381029533
  0
LINE
  5
463
100
AcDbEntity
  8
0
100
AcDbLine
 62
9
  6
CONTINUOUS
 10
1371.5038004955
 20
352.381029533
 11
1381.4059410644
 21
352.381029533
  0
LINE
  5
464
100
AcDbEntity
  8
6_ALL_SURFS
100
AcDbLine
 62
9
  6
CONTINUOUS
 10
1159.5453503989
 20
354.881029533
 11
1133.5453503989
 21
354.881029533
  0
LINE
  5
465
100
AcDbEntity
  8
6_ALL_SURFS
100
AcDbLine
 62
9
  6
CONTINUOUS
 10
1102.3241397142
 20
354.881029533
 11
1092.3969551625
 21
354.881029533
  0
LINE
  5
466
100
AcDbEntity
  8
0
100
AcDbLine
 62
9
  6
CONTINUOUS
 10
1314.5453503989
 20
354.881029533
 11
1340.5453503989
 21
354.881029533
  0
LINE
  5
467
100
AcDbEntity
  8
0
100
AcDbLine
 62
9
  6
CONTINUOUS
 10
1371.7665610837
 20
354.881029533
 11
1381.6937456353
 21
354.881029533
  0
LINE
  5
468
100
AcDbEntity
  8
6_ALL_SURFS
100
AcDbLine
 62
7
  6
CONTINUOUS
 10
1159.5453503989
 20
361.5812835708
 11
1314.5453503989
 21
361.5812835708
  0
LINE
  5
469
100
AcDbEntity
  8
6_ALL_SURFS
100
AcDbLine
 62
7
  6
CONTINUOUS
 10
1133.5453503989
 20
372.2015376086
 11
1100.5036809585
 21
372.2015376086
  0
LINE
  5
46A
100
AcDbEntity
  8
0
100
AcDbLine
 62
7
  6
CONTINUOUS
 10
1340.5453503989
 20
372.2015376086
 11
1373.5870198394
 21
372.2015376086
  0
LINE
  5
46B
100
AcDbEntity
  8
6_ALL_SURFS
100
AcDbLine
 62
7
  6
CONTINUOUS
 10
1133.5453503989
 20
376.3970357645
 11
1100.0627163332
 21
376.3970357645
  0
LINE
  5
46C
100
AcDbEntity
  8
0
100
AcDbLine
 62
7
  6
CONTINUOUS
 10
1340.5453503989
 20
376.3970357645
 11
1374.0279844646
 21
376.3970357645
  0
LINE
  5
46D
100
AcDbEntity
  8
3_AXES_OTHER
100
AcDbLine
 62
7
  6
CENTER
 10
1237.0453503989
 20
391.5412835708
 11
1237.0453503989
 21
353.2212835708
  0
LINE
  5
46E
100
AcDbEntity
  8
3_AXES_OTHER
100
AcDbLine
 62
7
  6
CENTER
 10
1237.0453503989
 20
391.5412835708
 11
1237.0453503989
 21
429.8612835708
  0
LINE
  5
46F
100
AcDbEntity
  8
6_ALL_SURFS
100
AcDbLine
 62
7
  6
CONTINUOUS
 10
1141.6453570731
 20
250.6422824747
 11
1142.832079885
 21
252.6038067018
  0
LINE
  5
470
100
AcDbEntity
  8
3_AXES_OTHER
100
AcDbLine
 62
7
  6
CENTER
 10
1237.0453503989
 20
391.5412835708
 11
1198.7253503989
 21
391.5412835708
  0
LINE
  5
471
100
AcDbEntity
  8
3_AXES_OTHER
100
AcDbLine
 62
7
  6
CENTER
 10
1237.0453503989
 20
391.5412835708
 11
1275.3653503989
 21
391.5412835708
  0
LINE
  5
472
100
AcDbEntity
  8
0
100
AcDbLine
 62
7
  6
CONTINUOUS
 10
1331.2586209129
 20
252.6038067018
 11
1332.4453437248
 21
250.6422824747
  0
LWPOLYLINE
  5
473
100
AcDbEntity
  8
0
100
AcDbPolyline
 62
2
  6
CONTINUOUS
 90
5
 70
0
 10
951.625356827
 20
439.5348107675
 10
984.0542638902
 20
439.5348107675
 10
984.0542638902
 20
476.1108107675
 10
951.625356827
 20
476.1108107675
 10
951.625356827
 20
439.5348107675
  0
LINE
  5
474
100
AcDbEntity
  8
0
100
AcDbLine
 62
7
  6
CONTINUOUS
 10
1314.5453503989
 20
237.0946717634
 11
1314.5453503989
 21
361.5812835708
  0
LINE
  5
475
100
AcDbEntity
  8
0
100
AcDbLine
 62
7
  6
CONTINUOUS
 10
1340.5453503989
 20
376.3970357645
 11
1340.5453503989
 21
333.7476215484
  0
LINE
  5
476
100
AcDbEntity
  8
0
100
AcDbLine
 62
7
  6
CONTINUOUS
 10
1374.0279844646
 20
376.3970357645
 11
1369.5453503989
 21
333.7476215484
  0
LINE
  5
477
100
AcDbEntity
  8
0
100
AcDbLine
 62
7
  6
CONTINUOUS
 10
1357.832079885
 20
252.6038067018
 11
1356.6453570731
 21
250.6422824747
  0
LINE
  5
478
100
AcDbEntity
  8
7_ALL_ROUNDS
100
AcDbLine
 62
7
  6
CONTINUOUS
 10
2425.6165134545
 20
1219.6842906885
 11
2439.5158364716
 21
1227.6404359978
  0
LINE
  5
479
100
AcDbEntity
  8
0
100
AcDbLine
 62
7
  6
CONTINUOUS
 10
2377.8560273241
 20
766.8967604283
 11
2410.8976967646
 21
766.8967604283
  0
LINE
  5
47A
100
AcDbEntity
  8
6_ALL_SURFS
100
AcDbLine
 62
7
  6
CONTINUOUS
 10
2617.8976967646
 20
766.8967604283
 11
2650.9393662051
 21
766.8967604283
  0
LINE
  5
47B
100
AcDbEntity
  8
0
100
AcDbLine
 62
7
  6
CONTINUOUS
 10
2436.8976967646
 20
771.8967604283
 11
2410.8976967646
 21
771.8967604283
  0
LINE
  5
47C
100
AcDbEntity
  8
0
100
AcDbLine
 62
7
  6
CONTINUOUS
 10
2379.6764860798
 20
771.8967604283
 11
2369.7493015282
 21
771.8967604283
  0
LINE
  5
47D
100
AcDbEntity
  8
7_ALL_ROUNDS
100
AcDbLine
 62
7
  6
CONTINUOUS
 10
2358.3976967646
 20
771.8967604283
 11
2369.7493015282
 21
771.8967604283
  0
LINE
  5
47E
100
AcDbEntity
  8
6_ALL_SURFS
100
AcDbLine
 62
7
  6
CONTINUOUS
 10
2436.8976967646
 20
771.8967604283
 11
2617.8976967646
 21
771.8967604283
  0
LINE
  5
47F
100
AcDbEntity
  8
6_ALL_SURFS
100
AcDbLine
 62
7
  6
CONTINUOUS
 10
2649.1189074494
 20
771.8967604283
 11
2670.3976967646
 21
771.8967604283
  0
LINE
  5
480
100
AcDbEntity
  8
0
100
AcDbLine
 62
9
  6
CONTINUOUS
 10
2436.8976967646
 20
772.5666334093
 11
2410.8976967646
 21
772.5666334093
  0
LINE
  5
481
100
AcDbEntity
  8
0
100
AcDbLine
 62
9
  6
CONTINUOUS
 10
2379.939246668
 20
772.5666334093
 11
2370.0371060992
 21
772.5666334093
  0
LINE
  5
482
100
AcDbEntity
  8
6_ALL_SURFS
100
AcDbLine
 62
9
  6
CONTINUOUS
 10
2591.8976967646
 20
772.5666334093
 11
2617.8976967646
 21
772.5666334093
  0
LINE
  5
483
100
AcDbEntity
  8
6_ALL_SURFS
100
AcDbLine
 62
9
  6
CONTINUOUS
 10
2648.8561468612
 20
772.5666334093
 11
2658.75828743
 21
772.5666334093
  0
LINE
  5
484
100
AcDbEntity
  8
0
100
AcDbLine
 62
7
  6
CONTINUOUS
 10
2410.8976967646
 20
776.8967604283
 11
2381.7785707852
 21
776.8967604283
  0
LINE
  5
485
100
AcDbEntity
  8
6_ALL_SURFS
100
AcDbLine
 62
7
  6
CONTINUOUS
 10
2617.8976967646
 20
776.8967604283
 11
2647.0168227441
 21
776.8967604283
  0
LINE
  5
486
100
AcDbEntity
  8
0
100
AcDbLine
 62
7
  6
CONTINUOUS
 10
2410.8976967646
 20
783.3246365251
 11
2381.8976967646
 21
783.3246365251
  0
LINE
  5
487
100
AcDbEntity
  8
6_ALL_SURFS
100
AcDbLine
 62
7
  6
CONTINUOUS
 10
2617.8976967646
 20
783.3246365251
 11
2646.8976967646
 21
783.3246365251
  0
LINE
  5
488
100
AcDbEntity
  8
0
100
AcDbLine
 62
7
  6
CONTINUOUS
 10
2436.8976967646
 20
813.8967604283
 11
2458.8976967646
 21
813.8967604283
  0
LINE
  5
489
100
AcDbEntity
  8
6_ALL_SURFS
100
AcDbLine
 62
7
  6
CONTINUOUS
 10
2458.8976967646
 20
813.8967604283
 11
2591.8976967646
 21
813.8967604283
  0
LINE
  5
48A
100
AcDbEntity
  8
7_ALL_ROUNDS
100
AcDbLine
 62
9
  6
CONTINUOUS
 10
2435.9813799618
 20
1175.5172287871
 11
2445.7015996997
 21
1185.2137705582
  0
LINE
  5
48B
100
AcDbEntity
  8
0
100
AcDbLine
 62
7
  6
CONTINUOUS
 10
2392.0782756467
 20
825.5320237185
 11
2393.4018929536
 21
821.3055264104
  0
LINE
  5
48C
100
AcDbEntity
  8
0
100
AcDbLine
 62
7
  6
CONTINUOUS
 10
2377.4150626989
 20
771.8967604283
 11
2377.8560273241
 21
766.8967604283
  0
LINE
  5
48D
100
AcDbEntity
  8
0
100
AcDbLine
 62
7
  6
CONTINUOUS
 10
2358.3976967646
 20
771.8967604283
 11
2358.3976967646
 21
1228.8967604283
  0
LINE
  5
48E
100
AcDbEntity
  8
7_ALL_ROUNDS
100
AcDbLine
 62
9
  6
CONTINUOUS
 10
2450.5463211796
 20
1163.9908315205
 11
2460.2516188418
 21
1173.6724875654
  0
LINE
  5
48F
100
AcDbEntity
  8
0
100
AcDbLine
 62
7
  6
CONTINUOUS
 10
2391.8976967646
 20
826.6922777564
 11
2392.075930625
 21
825.5395366208
  0
LINE
  5
490
100
AcDbEntity
  8
0
100
AcDbLine
 62
7
  6
CONTINUOUS
 10
2393.2374427268
 20
822.3621507374
 11
2393.3997573808
 21
821.3123682873
  0
LINE
  5
491
100
AcDbEntity
  8
0
100
AcDbLine
 62
9
  6
CONTINUOUS
 10
2381.2976967646
 20
820.6828581748
 11
2381.2976967646
 21
1219.7598747165
  0
LINE
  5
492
100
AcDbEntity
  8
0
100
AcDbLine
 62
7
  6
CONTINUOUS
 10
2381.7785707852
 20
776.8967604283
 11
2381.8976967646
 21
783.3246365251
  0
LINE
  5
493
100
AcDbEntity
  8
0
100
AcDbLine
 62
7
  6
CONTINUOUS
 10
2397.6976967646
 20
860.4221577578
 11
2387.1332080693
 21
860.4221577578
  0
LINE
  5
494
100
AcDbEntity
  8
6_ALL_SURFS
100
AcDbLine
 62
7
  6
CONTINUOUS
 10
2631.0976967646
 20
860.4221577578
 11
2641.6621854599
 21
860.4221577578
  0
LINE
  5
495
100
AcDbEntity
  8
0
100
AcDbLine
 62
7
  6
CONTINUOUS
 10
2436.8976967646
 20
861.5759501549
 11
2397.6976967646
 21
861.5759501549
  0
LINE
  5
496
100
AcDbEntity
  8
6_ALL_SURFS
100
AcDbLine
 62
7
  6
CONTINUOUS
 10
2591.8976967646
 20
861.5759501549
 11
2631.0976967646
 21
861.5759501549
  0
LINE
  5
497
100
AcDbEntity
  8
6_ALL_SURFS
100
AcDbLine
 62
7
  6
CONTINUOUS
 10
2436.8976967646
 20
866.8967604283
 11
2591.8976967646
 21
866.8967604283
  0
LINE
  5
498
100
AcDbEntity
  8
0
100
AcDbLine
 62
7
  6
CONTINUOUS
 10
2387.1332080693
 20
860.4221577578
 11
2387.1332080693
 21
1181.3713630987
  0
LINE
  5
499
100
AcDbEntity
  8
0
100
AcDbLine
 62
7
  6
CONTINUOUS
 10
2392.5250026438
 20
836.5599905775
 11
2392.5250026438
 21
859.7928164503
  0
LINE
  5
49A
100
AcDbEntity
  8
0
100
AcDbLine
 62
7
  6
CONTINUOUS
 10
2392.5250026438
 20
1182.0007044062
 11
2392.5250026438
 21
1210.5514665026
  0
LINE
  5
49B
100
AcDbEntity
  8
0
100
AcDbLine
 62
7
  6
CONTINUOUS
 10
2397.6976967646
 20
1181.3713630987
 11
2397.6976967646
 21
860.4221577578
  0
LINE
  5
49C
100
AcDbEntity
  8
0
100
AcDbLine
 62
7
  6
CONTINUOUS
 10
2401.216599807
 20
1145.3967604283
 11
2401.216599807
 21
885.3967604283
  0
LINE
  5
49D
100
AcDbEntity
  8
0
100
AcDbLine
 62
7
  6
CONTINUOUS
 10
2402.3976967646
 20
1145.3967604283
 11
2402.3976967646
 21
885.3967604283
  0
LINE
  5
49E
100
AcDbEntity
  8
6_ALL_SURFS
100
AcDbLine
 62
7
  6
CONTINUOUS
 10
2621.3976967646
 20
879.2156634707
 11
2407.3976967646
 21
879.2156634707
  0
LINE
  5
49F
100
AcDbEntity
  8
6_ALL_SURFS
100
AcDbLine
 62
7
  6
CONTINUOUS
 10
2407.3976967646
 20
880.3967604283
 11
2621.3976967646
 21
880.3967604283
  0
LINE
  5
4A0
100
AcDbEntity
  8
0
100
AcDbLine
 62
9
  6
CONTINUOUS
 10
2402.3976967646
 20
885.3967604283
 11
2401.216599807
 21
885.3967604283
  0
LINE
  5
4A1
100
AcDbEntity
  8
6_ALL_SURFS
100
AcDbLine
 62
9
  6
CONTINUOUS
 10
2626.3976967646
 20
885.3967604283
 11
2627.5787937222
 21
885.3967604283
  0
LINE
  5
4A2
100
AcDbEntity
  8
0
100
AcDbLine
 62
9
  6
CONTINUOUS
 10
2407.3976967646
 20
880.3967604283
 11
2407.3976967646
 21
879.2156634707
  0
LINE
  5
4A3
100
AcDbEntity
  8
0
100
AcDbLine
 62
9
  6
CONTINUOUS
 10
2407.3976967646
 20
1150.3967604283
 11
2407.3976967646
 21
1151.5778573859
  0
LINE
  5
4A4
100
AcDbEntity
  8
0
100
AcDbLine
 62
7
  6
CONTINUOUS
 10
2410.8976967646
 20
766.8967604283
 11
2410.8976967646
 21
783.3246365251
  0
LINE
  5
4A5
100
AcDbEntity
  8
0
100
AcDbLine
 62
7
  6
CONTINUOUS
 10
2381.8976967646
 20
783.3246365251
 11
2379.939246668
 21
772.5666334093
  0
LINE
  5
4A6
100
AcDbEntity
  8
0
100
AcDbLine
 62
7
  6
CONTINUOUS
 10
2379.9581120294
 20
766.8967604283
 11
2381.7785707852
 21
776.8967604283
  0
LINE
  5
4A7
100
AcDbEntity
  8
6_ALL_SURFS
100
AcDbLine
 62
7
  6
CONTINUOUS
 10
2596.9619010156
 20
1182.2832092375
 11
2593.919538269
 21
1180.2175707016
  0
LINE
  5
4A8
100
AcDbEntity
  8
0
100
AcDbLine
 62
7
  6
CONTINUOUS
 10
2436.8976967646
 20
771.8967604283
 11
2436.8976967646
 21
866.8967604283
  0
LINE
  5
4A9
100
AcDbEntity
  8
7_ALL_ROUNDS
100
AcDbLine
 62
7
  6
CONTINUOUS
 10
2425.5311307845
 20
1209.2783715199
 11
2425.5571913158
 21
1219.3875126845
  0
LINE
  5
4AA
100
AcDbEntity
  8
0
100
AcDbLine
 62
7
  6
CONTINUOUS
 10
2589.1476967646
 20
908.6467604283
 11
2608.6476967646
 21
908.6467604283
  0
LINE
  5
4AB
100
AcDbEntity
  8
0
100
AcDbLine
 62
7
  6
CONTINUOUS
 10
2590.8976967646
 20
910.2467604283
 11
2602.3976967646
 21
910.2467604283
  0
LINE
  5
4AC
100
AcDbEntity
  8
0
100
AcDbLine
 62
7
  6
CONTINUOUS
 10
2446.8976967646
 20
813.8967604283
 11
2446.8976967646
 21
866.8967604283
  0
LINE
  5
4AD
100
AcDbEntity
  8
0
100
AcDbLine
 62
9
  6
CONTINUOUS
 10
2458.8976967646
 20
813.8967604283
 11
2458.8976967646
 21
866.8967604283
  0
LINE
  5
4AE
100
AcDbEntity
  8
0
100
AcDbLine
 62
7
  6
CONTINUOUS
 10
2420.3956361484
 20
821.3123682873
 11
2420.5579508025
 21
822.3621507374
  0
LINE
  5
4AF
100
AcDbEntity
  8
0
100
AcDbLine
 62
7
  6
CONTINUOUS
 10
2421.7194629042
 20
825.5395366208
 11
2421.8976967646
 21
826.6922777564
  0
LINE
  5
4B0
100
AcDbEntity
  8
0
100
AcDbLine
 62
7
  6
CONTINUOUS
 10
2602.3976967646
 20
934.5467604283
 11
2590.8976967646
 21
934.5467604283
  0
LINE
  5
4B1
100
AcDbEntity
  8
0
100
AcDbLine
 62
7
  6
CONTINUOUS
 10
2608.6476967646
 20
936.1467604283
 11
2589.1476967646
 21
936.1467604283
  0
LINE
  5
4B2
100
AcDbEntity
  8
0
100
AcDbLine
 62
7
  6
CONTINUOUS
 10
2497.3976967646
 20
1228.382910941
 11
2494.0648823927
 21
1195.2459408997
  0
LINE
  5
4B3
100
AcDbEntity
  8
0
100
AcDbLine
 62
7
  6
CONTINUOUS
 10
2494.7369473818
 20
1195.2416132191
 11
2491.5825995068
 21
1164.7949898578
  0
LINE
  5
4B4
100
AcDbEntity
  8
0
100
AcDbLine
 62
7
  6
CONTINUOUS
 10
2491.6708563563
 20
1167.03264784
 11
2493.7159854677
 21
1186.6142638917
  0
LINE
  5
4B5
100
AcDbEntity
  8
0
100
AcDbLine
 62
7
  6
CONTINUOUS
 10
2494.2904155302
 20
1197.3856164292
 11
2494.0648823927
 21
1195.2459408997
  0
LINE
  5
4B6
100
AcDbEntity
  8
0
100
AcDbLine
 62
7
  6
CONTINUOUS
 10
2421.7171178825
 20
825.5320237185
 11
2420.3935005756
 21
821.3055264104
  0
LINE
  5
4B7
100
AcDbEntity
  8
0
100
AcDbLine
 62
7
  6
CONTINUOUS
 10
2592.3976967646
 20
958.6467604283
 11
2605.3976967646
 21
958.6467604283
  0
LINE
  5
4B8
100
AcDbEntity
  8
7_ALL_ROUNDS
100
AcDbLine
 62
7
  6
CONTINUOUS
 10
2434.8758552602
 20
1180.2175707016
 11
2435.9813799618
 21
1175.5172287871
  0
LINE
  5
4B9
100
AcDbEntity
  8
7_ALL_ROUNDS
100
AcDbLine
 62
9
  6
CONTINUOUS
 10
2445.5813926414
 20
1187.6370159966
 11
2439.5158364716
 21
1227.6404359978
  0
LINE
  5
4BA
100
AcDbEntity
  8
0
100
AcDbLine
 62
7
  6
CONTINUOUS
 10
2495.2956120593
 20
1202.4034836989
 11
2495.2956120593
 21
1206.5045412175
  0
LINE
  5
4BB
100
AcDbEntity
  8
0
100
AcDbLine
 62
7
  6
CONTINUOUS
 10
2497.3976967646
 20
1228.382910941
 11
2497.3976967646
 21
1222.0953208598
  0
LINE
  5
4BC
100
AcDbEntity
  8
0
100
AcDbLine
 62
7
  6
CONTINUOUS
 10
2491.6708563563
 20
1167.03264784
 11
2491.5825995068
 21
1164.7949898578
  0
LINE
  5
4BD
100
AcDbEntity
  8
0
100
AcDbLine
 62
7
  6
CONTINUOUS
 10
2605.3976967646
 20
978.1467604283
 11
2592.3976967646
 21
978.1467604283
  0
LINE
  5
4BE
100
AcDbEntity
  8
7_ALL_ROUNDS
100
AcDbLine
 62
9
  6
CONTINUOUS
 10
2460.1314117835
 20
1180.6393182008
 11
2452.8922446447
 21
1228.382910941
  0
LINE
  5
4BF
100
AcDbEntity
  8
6_ALL_SURFS
100
AcDbLine
 62
7
  6
CONTINUOUS
 10
2533.4997814699
 20
1206.5045412175
 11
2533.5008254237
 21
1206.5136438198
  0
LINE
  5
4C0
100
AcDbEntity
  8
6_ALL_SURFS
100
AcDbLine
 62
7
  6
CONTINUOUS
 10
2531.3976967646
 20
1228.382910941
 11
2531.3976967646
 21
1222.0953208598
  0
LINE
  5
4C1
100
AcDbEntity
  8
6_ALL_SURFS
100
AcDbLine
 62
7
  6
CONTINUOUS
 10
2533.4997814699
 20
1202.4034836989
 11
2533.4997814699
 21
1206.5045412175
  0
LINE
  5
4C2
100
AcDbEntity
  8
0
100
AcDbLine
 62
7
  6
CONTINUOUS
 10
2606.8976967646
 20
930.0467604283
 11
2602.3976967646
 21
934.5467604283
  0
LINE
  5
4C3
100
AcDbEntity
  8
0
100
AcDbLine
 62
7
  6
CONTINUOUS
 10
2495.2956120593
 20
1206.5045412175
 11
2495.2945681055
 21
1206.5136438198
  0
LINE
  5
4C4
100
AcDbEntity
  8
6_ALL_SURFS
100
AcDbLine
 62
7
  6
CONTINUOUS
 10
2537.1245371729
 20
1167.03264784
 11
2537.2127940224
 21
1164.7949898578
  0
LINE
  5
4C5
100
AcDbEntity
  8
6_ALL_SURFS
100
AcDbLine
 62
9
  6
CONTINUOUS
 10
2568.6639817457
 20
1180.6393182008
 11
2575.9031488845
 21
1228.382910941
  0
LINE
  5
4C6
100
AcDbEntity
  8
6_ALL_SURFS
100
AcDbLine
 62
9
  6
CONTINUOUS
 10
2583.2140008878
 20
1187.6370159966
 11
2589.2795570576
 21
1227.6404359978
  0
LINE
  5
4C7
100
AcDbEntity
  8
6_ALL_SURFS
100
AcDbLine
 62
7
  6
CONTINUOUS
 10
2593.919538269
 20
1180.2175707016
 11
2592.8140135674
 21
1175.5172287871
  0
LINE
  5
4C8
100
AcDbEntity
  8
6_ALL_SURFS
100
AcDbLine
 62
7
  6
CONTINUOUS
 10
2608.4018929536
 20
821.3055264104
 11
2607.0782756467
 21
825.5320237185
  0
LINE
  5
4C9
100
AcDbEntity
  8
6_ALL_SURFS
100
AcDbLine
 62
7
  6
CONTINUOUS
 10
2534.5049779991
 20
1197.3856164292
 11
2534.7305111365
 21
1195.2459408997
  0
LINE
  5
4CA
100
AcDbEntity
  8
6_ALL_SURFS
100
AcDbLine
 62
7
  6
CONTINUOUS
 10
2537.1245371729
 20
1167.03264784
 11
2535.0794080616
 21
1186.6142638917
  0
LINE
  5
4CB
100
AcDbEntity
  8
6_ALL_SURFS
100
AcDbLine
 62
7
  6
CONTINUOUS
 10
2534.0584461474
 20
1195.2416132191
 11
2537.2127940224
 21
1164.7949898578
  0
LINE
  5
4CC
100
AcDbEntity
  8
6_ALL_SURFS
100
AcDbLine
 62
7
  6
CONTINUOUS
 10
2531.3976967646
 20
1228.382910941
 11
2534.7305111365
 21
1195.2459408997
  0
LINE
  5
4CD
100
AcDbEntity
  8
6_ALL_SURFS
100
AcDbLine
 62
9
  6
CONTINUOUS
 10
2569.8976967646
 20
813.8967604283
 11
2569.8976967646
 21
866.8967604283
  0
LINE
  5
4CE
100
AcDbEntity
  8
6_ALL_SURFS
100
AcDbLine
 62
7
  6
CONTINUOUS
 10
2581.8976967646
 20
813.8967604283
 11
2581.8976967646
 21
866.8967604283
  0
LINE
  5
4CF
100
AcDbEntity
  8
0
100
AcDbLine
 62
7
  6
CONTINUOUS
 10
2589.1476967646
 20
936.1467604283
 11
2589.1476967646
 21
908.6467604283
  0
LINE
  5
4D0
100
AcDbEntity
  8
0
100
AcDbLine
 62
7
  6
CONTINUOUS
 10
2590.8976967646
 20
934.5467604283
 11
2590.8976967646
 21
910.2467604283
  0
LINE
  5
4D1
100
AcDbEntity
  8
6_ALL_SURFS
100
AcDbLine
 62
7
  6
CONTINUOUS
 10
2607.075930625
 20
825.5395366208
 11
2606.8976967646
 21
826.6922777564
  0
LINE
  5
4D2
100
AcDbEntity
  8
6_ALL_SURFS
100
AcDbLine
 62
7
  6
CONTINUOUS
 10
2608.3997573808
 20
821.3123682873
 11
2608.2374427268
 21
822.3621507374
  0
LINE
  5
4D3
100
AcDbEntity
  8
6_ALL_SURFS
100
AcDbLine
 62
7
  6
CONTINUOUS
 10
2603.2642627447
 20
1209.2783715199
 11
2603.2382022135
 21
1219.3875126845
  0
LINE
  5
4D4
100
AcDbEntity
  8
6_ALL_SURFS
100
AcDbLine
 62
7
  6
CONTINUOUS
 10
2591.8976967646
 20
771.8967604283
 11
2591.8976967646
 21
866.8967604283
  0
LINE
  5
4D5
100
AcDbEntity
  8
0
100
AcDbLine
 62
7
  6
CONTINUOUS
 10
2592.3976967646
 20
978.1467604283
 11
2592.3976967646
 21
958.6467604283
  0
LINE
  5
4D6
100
AcDbEntity
  8
0
100
AcDbLine
 62
7
  6
CONTINUOUS
 10
2605.3976967646
 20
958.6467604283
 11
2605.3976967646
 21
978.1467604283
  0
LINE
  5
4D7
100
AcDbEntity
  8
0
100
AcDbLine
 62
7
  6
CONTINUOUS
 10
2606.8976967646
 20
914.7467604283
 11
2606.8976967646
 21
930.0467604283
  0
LINE
  5
4D8
100
AcDbEntity
  8
0
100
AcDbLine
 62
7
  6
CONTINUOUS
 10
2608.6476967646
 20
908.6467604283
 11
2608.6476967646
 21
936.1467604283
  0
LINE
  5
4D9
100
AcDbEntity
  8
6_ALL_SURFS
100
AcDbLine
 62
7
  6
CONTINUOUS
 10
2648.8372814998
 20
766.8967604283
 11
2647.0168227441
 21
776.8967604283
  0
LINE
  5
4DA
100
AcDbEntity
  8
6_ALL_SURFS
100
AcDbLine
 62
7
  6
CONTINUOUS
 10
2646.8976967646
 20
783.3246365251
 11
2648.8561468612
 21
772.5666334093
  0
LINE
  5
4DB
100
AcDbEntity
  8
6_ALL_SURFS
100
AcDbLine
 62
7
  6
CONTINUOUS
 10
2617.8976967646
 20
766.8967604283
 11
2617.8976967646
 21
783.3246365251
  0
LINE
  5
4DC
100
AcDbEntity
  8
6_ALL_SURFS
100
AcDbLine
 62
9
  6
CONTINUOUS
 10
2621.3976967646
 20
880.3967604283
 11
2621.3976967646
 21
879.2156634707
  0
LINE
  5
4DD
100
AcDbEntity
  8
6_ALL_SURFS
100
AcDbLine
 62
9
  6
CONTINUOUS
 10
2621.3976967646
 20
1150.3967604283
 11
2621.3976967646
 21
1151.5778573859
  0
LINE
  5
4DE
100
AcDbEntity
  8
6_ALL_SURFS
100
AcDbLine
 62
7
  6
CONTINUOUS
 10
2626.3976967646
 20
1145.3967604283
 11
2626.3976967646
 21
885.3967604283
  0
LINE
  5
4DF
100
AcDbEntity
  8
6_ALL_SURFS
100
AcDbLine
 62
7
  6
CONTINUOUS
 10
2627.5787937222
 20
1145.3967604283
 11
2627.5787937222
 21
885.3967604283
  0
LINE
  5
4E0
100
AcDbEntity
  8
6_ALL_SURFS
100
AcDbLine
 62
7
  6
CONTINUOUS
 10
2431.8334925136
 20
1182.2832092375
 11
2434.8758552602
 21
1180.2175707016
  0
LINE
  5
4E1
100
AcDbEntity
  8
6_ALL_SURFS
100
AcDbLine
 62
7
  6
CONTINUOUS
 10
2647.0168227441
 20
776.8967604283
 11
2646.8976967646
 21
783.3246365251
  0
LINE
  5
4E2
100
AcDbEntity
  8
6_ALL_SURFS
100
AcDbLine
 62
7
  6
CONTINUOUS
 10
2631.0976967646
 20
1181.3713630987
 11
2631.0976967646
 21
860.4221577578
  0
LINE
  5
4E3
100
AcDbEntity
  8
6_ALL_SURFS
100
AcDbLine
 62
7
  6
CONTINUOUS
 10
2636.2703908855
 20
836.5599905775
 11
2636.2703908855
 21
859.7928164503
  0
LINE
  5
4E4
100
AcDbEntity
  8
6_ALL_SURFS
100
AcDbLine
 62
7
  6
CONTINUOUS
 10
2636.2703908855
 20
1182.0007044062
 11
2636.2703908855
 21
1210.5514665026
  0
LINE
  5
4E5
100
AcDbEntity
  8
6_ALL_SURFS
100
AcDbLine
 62
7
  6
CONTINUOUS
 10
2641.6621854599
 20
860.4221577578
 11
2641.6621854599
 21
1181.3713630987
  0
LINE
  5
4E6
100
AcDbEntity
  8
0
100
AcDbLine
 62
7
  6
CONTINUOUS
 10
2602.3976967646
 20
910.2467604283
 11
2606.8976967646
 21
914.7467604283
  0
LINE
  5
4E7
100
AcDbEntity
  8
6_ALL_SURFS
100
AcDbLine
 62
9
  6
CONTINUOUS
 10
2647.4976967646
 20
820.6828581748
 11
2647.4976967646
 21
1219.7598747165
  0
LINE
  5
4E8
100
AcDbEntity
  8
6_ALL_SURFS
100
AcDbLine
 62
7
  6
CONTINUOUS
 10
2635.5579508025
 20
822.3621507374
 11
2635.3956361484
 21
821.3123682873
  0
LINE
  5
4E9
100
AcDbEntity
  8
6_ALL_SURFS
100
AcDbLine
 62
7
  6
CONTINUOUS
 10
2636.8976967646
 20
826.6922777564
 11
2636.7194629042
 21
825.5395366208
  0
LINE
  5
4EA
100
AcDbEntity
  8
0
100
AcDbLine
 62
9
  6
CONTINUOUS
 10
2402.3976967646
 20
1145.3967604283
 11
2401.216599807
 21
1145.3967604283
  0
LINE
  5
4EB
100
AcDbEntity
  8
6_ALL_SURFS
100
AcDbLine
 62
9
  6
CONTINUOUS
 10
2626.3976967646
 20
1145.3967604283
 11
2627.5787937222
 21
1145.3967604283
  0
LINE
  5
4EC
100
AcDbEntity
  8
6_ALL_SURFS
100
AcDbLine
 62
7
  6
CONTINUOUS
 10
2670.3976967646
 20
771.8967604283
 11
2670.3976967646
 21
1228.8967604283
  0
LINE
  5
4ED
100
AcDbEntity
  8
6_ALL_SURFS
100
AcDbLine
 62
7
  6
CONTINUOUS
 10
2651.3803308303
 20
771.8967604283
 11
2650.9393662051
 21
766.8967604283
  0
LINE
  5
4EE
100
AcDbEntity
  8
6_ALL_SURFS
100
AcDbLine
 62
7
  6
CONTINUOUS
 10
2635.3935005756
 20
821.3055264104
 11
2636.7171178825
 21
825.5320237185
  0
LINE
  5
4EF
100
AcDbEntity
  8
6_ALL_SURFS
100
AcDbLine
 62
7
  6
CONTINUOUS
 10
2621.3976967646
 20
1150.3967604283
 11
2407.3976967646
 21
1150.3967604283
  0
LINE
  5
4F0
100
AcDbEntity
  8
6_ALL_SURFS
100
AcDbLine
 62
7
  6
CONTINUOUS
 10
2407.3976967646
 20
1151.5778573859
 11
2621.3976967646
 21
1151.5778573859
  0
LINE
  5
4F1
100
AcDbEntity
  8
6_ALL_SURFS
100
AcDbLine
 62
7
  6
CONTINUOUS
 10
2578.2490723496
 20
1163.9908315205
 11
2450.5463211796
 21
1163.9908315205
  0
LINE
  5
4F2
100
AcDbEntity
  8
6_ALL_SURFS
100
AcDbLine
 62
7
  6
CONTINUOUS
 10
2537.2127940224
 20
1164.7949898578
 11
2491.5825995068
 21
1164.7949898578
  0
LINE
  5
4F3
100
AcDbEntity
  8
6_ALL_SURFS
100
AcDbLine
 62
9
  6
CONTINUOUS
 10
2578.2490723496
 20
1163.9908315205
 11
2568.5437746874
 21
1173.6724875654
  0
LINE
  5
4F4
100
AcDbEntity
  8
6_ALL_SURFS
100
AcDbLine
 62
9
  6
CONTINUOUS
 10
2460.2516188418
 20
1173.6724875654
 11
2492.3643297388
 21
1173.6724875654
  0
LINE
  5
4F5
100
AcDbEntity
  8
6_ALL_SURFS
100
AcDbLine
 62
9
  6
CONTINUOUS
 10
2536.4310637905
 20
1173.6724875654
 11
2568.5437746874
 21
1173.6724875654
  0
LINE
  5
4F6
100
AcDbEntity
  8
6_ALL_SURFS
100
AcDbLine
 62
7
  6
CONTINUOUS
 10
2434.8758552602
 20
1180.2175707016
 11
2397.6976967646
 21
1180.2175707016
  0
LINE
  5
4F7
100
AcDbEntity
  8
6_ALL_SURFS
100
AcDbLine
 62
7
  6
CONTINUOUS
 10
2593.919538269
 20
1180.2175707016
 11
2631.0976967646
 21
1180.2175707016
  0
LINE
  5
4F8
100
AcDbEntity
  8
6_ALL_SURFS
100
AcDbLine
 62
9
  6
CONTINUOUS
 10
2460.1314117835
 20
1180.6393182008
 11
2493.0919544715
 21
1180.6393182008
  0
LINE
  5
4F9
100
AcDbEntity
  8
6_ALL_SURFS
100
AcDbLine
 62
9
  6
CONTINUOUS
 10
2535.7034390577
 20
1180.6393182008
 11
2568.6639817457
 21
1180.6393182008
  0
LINE
  5
4FA
100
AcDbEntity
  8
0
100
AcDbLine
 62
7
  6
CONTINUOUS
 10
2397.6976967646
 20
1181.3713630987
 11
2387.1332080693
 21
1181.3713630987
  0
LINE
  5
4FB
100
AcDbEntity
  8
6_ALL_SURFS
100
AcDbLine
 62
7
  6
CONTINUOUS
 10
2631.0976967646
 20
1181.3713630987
 11
2641.6621854599
 21
1181.3713630987
  0
LINE
  5
4FC
100
AcDbEntity
  8
6_ALL_SURFS
100
AcDbLine
 62
9
  6
CONTINUOUS
 10
2592.8140135674
 20
1175.5172287871
 11
2583.0937938296
 21
1185.2137705582
  0
LINE
  5
4FD
100
AcDbEntity
  8
6_ALL_SURFS
100
AcDbLine
 62
9
  6
CONTINUOUS
 10
2494.7369473818
 20
1195.2416132191
 11
2534.0584461474
 21
1195.2416132191
  0
LINE
  5
4FE
100
AcDbEntity
  8
6_ALL_SURFS
100
AcDbLine
 62
7
  6
CONTINUOUS
 10
2534.7305111365
 20
1195.2459408997
 11
2534.1895487853
 21
1195.2459408997
  0
LINE
  5
4FF
100
AcDbEntity
  8
6_ALL_SURFS
100
AcDbLine
 62
7
  6
CONTINUOUS
 10
2494.6058447439
 20
1195.2459408997
 11
2494.0648823927
 21
1195.2459408997
  0
LINE
  5
500
100
AcDbEntity
  8
6_ALL_SURFS
100
AcDbLine
 62
9
  6
CONTINUOUS
 10
2494.2904155302
 20
1197.3856164292
 11
2494.8221107835
 21
1197.3856164292
  0
LINE
  5
501
100
AcDbEntity
  8
6_ALL_SURFS
100
AcDbLine
 62
9
  6
CONTINUOUS
 10
2533.9732827457
 20
1197.3856164292
 11
2534.5049779991
 21
1197.3856164292
  0
LINE
  5
502
100
AcDbEntity
  8
6_ALL_SURFS
100
AcDbLine
 62
9
  6
CONTINUOUS
 10
2646.9144749593
 20
1219.3875126845
 11
2603.2382022135
 21
1219.3875126845
  0
LINE
  5
503
100
AcDbEntity
  8
7_ALL_ROUNDS
100
AcDbLine
 62
9
  6
CONTINUOUS
 10
2381.88091857
 20
1219.3875126845
 11
2425.5571913158
 21
1219.3875126845
  0
LINE
  5
504
100
AcDbEntity
  8
6_ALL_SURFS
100
AcDbLine
 62
9
  6
CONTINUOUS
 10
2647.2056372918
 20
1219.6842906885
 11
2603.1788800747
 21
1219.6842906885
  0
LINE
  5
505
100
AcDbEntity
  8
7_ALL_ROUNDS
100
AcDbLine
 62
9
  6
CONTINUOUS
 10
2381.5897562374
 20
1219.6842906885
 11
2425.6165134545
 21
1219.6842906885
  0
LINE
  5
506
100
AcDbEntity
  8
6_ALL_SURFS
100
AcDbLine
 62
9
  6
CONTINUOUS
 10
2497.3976967646
 20
1222.0953208598
 11
2531.3976967646
 21
1222.0953208598
  0
LINE
  5
507
100
AcDbEntity
  8
0
100
AcDbLine
 62
7
  6
CONTINUOUS
 10
2497.3976967646
 20
1228.382910941
 11
2452.8922446447
 21
1228.382910941
  0
LINE
  5
508
100
AcDbEntity
  8
6_ALL_SURFS
100
AcDbLine
 62
7
  6
CONTINUOUS
 10
2531.3976967646
 20
1228.382910941
 11
2575.9031488845
 21
1228.382910941
  0
LINE
  5
509
100
AcDbEntity
  8
6_ALL_SURFS
100
AcDbLine
 62
7
  6
CONTINUOUS
 10
2358.3976967646
 20
1228.8967604283
 11
2670.3976967646
 21
1228.8967604283
  0
LINE
  5
50A
100
AcDbEntity
  8
6_ALL_SURFS
100
AcDbLine
 62
7
  6
CONTINUOUS
 10
2603.1788800747
 20
1219.6842906885
 11
2589.2795570576
 21
1227.6404359978
  0
LWPOLYLINE
  5
50B
100
AcDbEntity
  8
0
100
AcDbPolyline
 62
7
  6
CONTINUOUS
 90
2
 70
1
 43
2.0
 10
2565.9665570971
 20
93.9914506643
 42
1.0
 10
2586.2865570971
 20
93.9914506643
 42
1.0
  0
LWPOLYLINE
  5
50C
100
AcDbEntity
  8
0
100
AcDbPolyline
 62
7
  6
CONTINUOUS
 90
2
 70
1
 43
2.0
 10
2571.0465570971
 20
93.9914506643
 42
1.0
 10
2581.2065570971
 20
93.9914506643
 42
1.0
  0
ARC
  5
50D
100
AcDbEntity
  8
0
100
AcDbCircle
 62
7
  6
CONTINUOUS
 10
3074.7686460944
 20
351.1273996086
 40
1.8100018892
100
AcDbArc
 50
90.0
 51
180.0
  0
ARC
  5
50E
100
AcDbEntity
  8
0
100
AcDbCircle
 62
7
  6
CONTINUOUS
 10
2940.6981900048
 20
351.4552464611
 40
1.8100018892
100
AcDbArc
 50
90.0
 51
180.0
  0
ARC
  5
50F
100
AcDbEntity
  8
0
100
AcDbCircle
 62
7
  6
CONTINUOUS
 10
3116.4766894813
 20
354.7474033801
 40
1.8100018818
100
AcDbArc
 50
270.0
 51
360.0
  0
ARC
  5
510
100
AcDbEntity
  8
0
100
AcDbCircle
 62
7
  6
CONTINUOUS
 10
3035.1630767773
 20
336.6940697853
 40
1.8100018818
100
AcDbArc
 50
0.0
 51
89.9999995368
  0
ARC
  5
511
100
AcDbEntity
  8
0
100
AcDbCircle
 62
7
  6
CONTINUOUS
 10
2994.6397743965
 20
329.3782291561
 40
1.8100018818
100
AcDbArc
 50
90.0
 51
180.0
  0
ARC
  5
512
100
AcDbEntity
  8
0
100
AcDbCircle
 62
7
  6
CONTINUOUS
 10
2994.6397743965
 20
325.9489327152
 40
1.8100018818
100
AcDbArc
 50
180.0
 51
270.0
  0
ARC
  5
513
100
AcDbEntity
  8
0
100
AcDbCircle
 62
7
  6
CONTINUOUS
 10
3051.2254933795
 20
354.6751881622
 40
1.8100018818
100
AcDbArc
 50
270.0
 51
360.0
  0
ARC
  5
514
100
AcDbEntity
  8
0
100
AcDbCircle
 62
7
  6
CONTINUOUS
 10
3051.2254933795
 20
358.3686510761
 40
1.8100018818
100
AcDbArc
 50
359.9999995369
 51
90.0
  0
ARC
  5
515
100
AcDbEntity
  8
0
100
AcDbCircle
 62
7
  6
CONTINUOUS
 10
2940.6981899977
 20
333.4067463581
 40
1.8100018818
100
AcDbArc
 50
180.0
 51
270.0
  0
ARC
  5
516
100
AcDbEntity
  8
0
100
AcDbCircle
 62
7
  6
CONTINUOUS
 10
3010.6471865616
 20
347.6304792765
 40
1.8100018818
100
AcDbArc
 50
180.0
 51
270.0
  0
ARC
  5
517
100
AcDbEntity
  8
0
100
AcDbCircle
 62
7
  6
CONTINUOUS
 10
3074.7686460867
 20
333.1550307376
 40
1.8100018818
100
AcDbArc
 50
180.0
 51
270.0
  0
ARC
  5
518
100
AcDbEntity
  8
0
100
AcDbCircle
 62
7
  6
CONTINUOUS
 10
3116.4766894889
 20
358.3686510909
 40
1.8100018745
100
AcDbArc
 50
0.000000539
 51
89.9999999245
  0
ARC
  5
519
100
AcDbEntity
  8
0
100
AcDbCircle
 62
7
  6
CONTINUOUS
 10
3116.4766894909
 20
325.888538239
 40
1.8100018721
100
AcDbArc
 50
270.1250535673
 51
360.0
  0
ARC
  5
51A
100
AcDbEntity
  8
0
100
AcDbCircle
 62
7
  6
CONTINUOUS
 10
3116.4766894889
 20
329.5350269814
 40
1.8100018745
100
AcDbArc
 50
0.0
 51
90.0
  0
ARC
  5
51B
100
AcDbEntity
  8
0
100
AcDbCircle
 62
7
  6
CONTINUOUS
 10
3010.6471865545
 20
351.0551844054
 40
1.8100018745
100
AcDbArc
 50
90.0
 51
180.0
  0
ARC
  5
51C
100
AcDbEntity
  8
0
100
AcDbCircle
 62
7
  6
CONTINUOUS
 10
2976.8613820912
 20
333.4067463869
 40
1.8100018745
100
AcDbArc
 50
270.0
 51
360.0
  0
ARC
  5
51D
100
AcDbEntity
  8
0
100
AcDbCircle
 62
7
  6
CONTINUOUS
 10
2976.8613820912
 20
351.4552464758
 40
1.8100018745
100
AcDbArc
 50
0.0000004631
 51
90.0000004631
  0
ARC
  5
51E
100
AcDbEntity
  8
0
100
AcDbCircle
 62
7
  6
CONTINUOUS
 10
3035.1630767843
 20
332.9982329129
 40
1.8100018745
100
AcDbArc
 50
270.0
 51
360.0
  0
ARC
  5
51F
100
AcDbEntity
  8
0
100
AcDbCircle
 62
7
  6
CONTINUOUS
 10
2962.1833958083
 20
335.083630312
 40
0.6961545705
100
AcDbArc
 50
90.0000000001
 51
180.0
  0
ARC
  5
520
100
AcDbEntity
  8
0
100
AcDbCircle
 62
7
  6
CONTINUOUS
 10
2962.3417252432
 20
320.6412075286
 40
0.6961545632
100
AcDbArc
 50
180.0
 51
270.0
  0
ARC
  5
521
100
AcDbEntity
  8
0
100
AcDbCircle
 62
7
  6
CONTINUOUS
 10
2973.1815599254
 20
320.6412075286
 40
0.6961545632
100
AcDbArc
 50
270.0
 51
360.0
  0
ARC
  5
522
100
AcDbEntity
  8
0
100
AcDbCircle
 62
7
  6
CONTINUOUS
 10
2972.9679882211
 20
335.0836303337
 40
0.6961545486
100
AcDbArc
 50
0.0
 51
89.9999987958
  0
CIRCLE
  5
523
100
AcDbEntity
  8
0
100
AcDbCircle
 62
7
  6
CONTINUOUS
 10
1237.0453503989
 20
919.2967604283
 40
126.25
  0
CIRCLE
  5
524
100
AcDbEntity
  8
0
100
AcDbCircle
 62
7
  6
CONTINUOUS
 10
1237.0453503989
 20
919.2967604283
 40
123.25
  0
CIRCLE
  5
525
100
AcDbEntity
  8
0
100
AcDbCircle
 62
7
  6
CONTINUOUS
 10
1237.0453503989
 20
919.2967604283
 40
113.25
  0
CIRCLE
  5
526
100
AcDbEntity
  8
0
100
AcDbCircle
 62
7
  6
CONTINUOUS
 10
1237.0453503989
 20
919.2967604283
 40
112.25
  0
CIRCLE
  5
527
100
AcDbEntity
  8
0
100
AcDbCircle
 62
7
  6
CONTINUOUS
 10
1237.0453503989
 20
919.2967604283
 40
104.25
  0
CIRCLE
  5
528
100
AcDbEntity
  8
0
100
AcDbCircle
 62
7
  6
CONTINUOUS
 10
1237.0453503989
 20
919.2967604283
 40
103.25
  0
CIRCLE
  5
529
100
AcDbEntity
  8
0
100
AcDbCircle
 62
7
  6
CONTINUOUS
 10
1237.0453503989
 20
919.2967604283
 40
95.25
  0
CIRCLE
  5
52A
100
AcDbEntity
  8
0
100
AcDbCircle
 62
7
  6
CONTINUOUS
 10
1237.0453503989
 20
919.2967604283
 40
35.0
  0
CIRCLE
  5
52B
100
AcDbEntity
  8
0
100
AcDbCircle
 62
7
  6
CONTINUOUS
 10
1237.0453503989
 20
1137.3225312591
 40
21.0536054905
  0
CIRCLE
  5
52C
100
AcDbEntity
  8
0
100
AcDbCircle
 62
7
  6
CONTINUOUS
 10
1237.0453503989
 20
1136.5926288156
 40
10.0
  0
ARC
  5
52D
100
AcDbEntity
  8
6_ALL_SURFS
100
AcDbCircle
 62
7
  6
CONTINUOUS
 10
-804.0147836888
 20
1401.8508081413
 40
2200.0
100
AcDbArc
 50
2.9623640278
 51
8.7901728668
  0
ARC
  5
52E
100
AcDbEntity
  8
6_ALL_SURFS
100
AcDbCircle
 62
7
  6
CONTINUOUS
 10
3278.1054844867
 20
1401.8508081413
 40
2200.0
100
AcDbArc
 50
171.2098271332
 51
177.0376359722
  0
ARC
  5
52F
100
AcDbEntity
  8
0
100
AcDbCircle
 62
7
  6
CONTINUOUS
 10
1237.0453503989
 20
773.0010098123
 40
1000.0
100
AcDbArc
 50
85.2640181292
 51
85.5551199821
  0
ARC
  5
530
100
AcDbEntity
  8
6_ALL_SURFS
100
AcDbCircle
 62
7
  6
CONTINUOUS
 10
1237.0453503989
 20
773.0010098123
 40
1000.0
100
AcDbArc
 50
82.9998065763
 51
85.2640283955
  0
ARC
  5
531
100
AcDbEntity
  8
6_ALL_SURFS
100
AcDbCircle
 62
7
  6
CONTINUOUS
 10
1237.0453503989
 20
773.0010098123
 40
1000.0
100
AcDbArc
 50
94.4448800179
 51
97.0001934237
  0
ARC
  5
532
100
AcDbEntity
  8
6_ALL_SURFS
100
AcDbCircle
 62
7
  6
CONTINUOUS
 10
1237.0453503989
 20
588.5467500317
 40
900.0
100
AcDbArc
 50
82.4661961157
 51
97.5338038843
  0
ARC
  5
533
100
AcDbEntity
  8
7_ALL_ROUNDS
100
AcDbCircle
 62
7
  6
CONTINUOUS
 10
1306.8970555891
 20
1728.2665044494
 40
64.0
100
AcDbArc
 50
8.7901728668
 51
35.6268425975
  0
ARC
  5
534
100
AcDbEntity
  8
6_ALL_SURFS
100
AcDbCircle
 62
7
  6
CONTINUOUS
 10
1167.1936452088
 20
1728.2665044494
 40
64.0
100
AcDbArc
 50
144.3731574025
 51
171.2098271332
  0
ARC
  5
535
100
AcDbEntity
  8
6_ALL_SURFS
100
AcDbCircle
 62
7
  6
CONTINUOUS
 10
1128.9762549195
 20
1529.781510017
 40
50.0
100
AcDbArc
 50
196.5406300743
 51
258.5438396512
  0
ARC
  5
536
100
AcDbEntity
  8
0
100
AcDbCircle
 62
7
  6
CONTINUOUS
 10
1345.1144458784
 20
1529.781510017
 40
50.0
100
AcDbArc
 50
281.4561603488
 51
343.4593699257
  0
ARC
  5
537
100
AcDbEntity
  8
7_ALL_ROUNDS
100
AcDbCircle
 62
7
  6
CONTINUOUS
 10
1985.0424018363
 20
776.8967604283
 40
5.0
100
AcDbArc
 50
270.0
 51
300.0
  0
ARC
  5
538
100
AcDbEntity
  8
7_ALL_ROUNDS
100
AcDbCircle
 62
7
  6
CONTINUOUS
 10
2072.3952097199
 20
1214.6890495806
 40
5.0
100
AcDbArc
 50
70.0
 51
87.5
  0
ARC
  5
539
100
AcDbEntity
  8
6_ALL_SURFS
100
AcDbCircle
 62
7
  6
CONTINUOUS
 10
3805.1942846175
 20
-141.8210364781
 40
2246.1507407168
100
AcDbArc
 50
117.2210960101
 51
117.5045272595
  0
ARC
  5
53A
100
AcDbEntity
  8
6_ALL_SURFS
100
AcDbCircle
 62
7
  6
CONTINUOUS
 10
1960.1548517555
 20
3328.5116991283
 40
1906.5661561396
100
AcDbArc
 50
302.6406819061
 51
302.9568410604
  0
ARC
  5
53B
100
AcDbEntity
  8
7_ALL_ROUNDS
100
AcDbCircle
 62
7
  6
CONTINUOUS
 10
1997.5221206674
 20
2897.8901248334
 40
1837.9659350612
100
AcDbArc
 50
302.627116979
 51
305.9711979757
  0
ARC
  5
53C
100
AcDbEntity
  8
0
100
AcDbCircle
 62
9
  6
CONTINUOUS
 10
2912.6694934719
 20
1496.3011619523
 40
68.1467186795
100
AcDbArc
 50
254.0785261305
 51
257.2973921717
  0
ARC
  5
53D
100
AcDbEntity
  8
0
100
AcDbCircle
 62
9
  6
CONTINUOUS
 10
2866.9728070023
 20
1577.7832894625
 40
66.1308474228
100
AcDbArc
 50
164.0992835931
 51
168.5114005794
  0
ARC
  5
53E
100
AcDbEntity
  8
0
100
AcDbCircle
 62
9
  6
CONTINUOUS
 10
2858.3466491068
 20
1584.0704702271
 40
63.5172964436
100
AcDbArc
 50
160.7661345969
 51
162.249510482
  0
ARC
  5
53F
100
AcDbEntity
  8
0
100
AcDbCircle
 62
9
  6
CONTINUOUS
 10
2908.923899205
 20
1496.137766582
 40
59.6701331295
100
AcDbArc
 50
257.0542218119
 51
258.2394353105
  0
ARC
  5
540
100
AcDbEntity
  8
0
100
AcDbCircle
 62
9
  6
CONTINUOUS
 10
2892.1070735276
 20
1482.8823915113
 40
54.4405529785
100
AcDbArc
 50
338.7780833461
 51
339.3428575267
  0
ARC
  5
541
100
AcDbEntity
  8
0
100
AcDbCircle
 62
7
  6
CONTINUOUS
 10
2915.5085722274
 20
1458.8121298209
 40
42.4770368789
100
AcDbArc
 50
293.4137167489
 51
296.2730175973
  0
ARC
  5
542
100
AcDbEntity
  8
0
100
AcDbCircle
 62
7
  6
CONTINUOUS
 10
2831.695606658
 20
1603.9403749349
 40
42.433147744
100
AcDbArc
 50
124.6789792974
 51
126.5353168686
  0
ARC
  5
543
100
AcDbEntity
  8
0
100
AcDbCircle
 62
7
  6
CONTINUOUS
 10
2838.3739610217
 20
1593.9950546009
 40
40.3844296378
100
AcDbArc
 50
120.0438731635
 51
127.9017807742
  0
ARC
  5
544
100
AcDbEntity
  8
0
100
AcDbCircle
 62
7
  6
CONTINUOUS
 10
2910.2832770696
 20
1469.4677494753
 40
40.3170603225
100
AcDbArc
 50
292.1509398684
 51
300.0034524479
  0
ARC
  5
545
100
AcDbEntity
  8
0
100
AcDbCircle
 62
9
  6
CONTINUOUS
 10
2911.8134177136
 20
1466.8814867347
 40
38.3138101128
100
AcDbArc
 50
291.4462078776
 51
295.1544817616
  0
ARC
  5
546
100
AcDbEntity
  8
0
100
AcDbCircle
 62
9
  6
CONTINUOUS
 10
2836.8564836458
 20
1596.6824686399
 40
38.3004697995
100
AcDbArc
 50
125.4607648764
 51
128.4489591884
  0
ARC
  5
547
100
AcDbEntity
  8
0
100
AcDbCircle
 62
9
  6
CONTINUOUS
 10
2837.0009582916
 20
1596.3159251666
 40
37.6878816562
100
AcDbArc
 50
112.6362344226
 51
119.9867423765
  0
ARC
  5
548
100
AcDbEntity
  8
0
100
AcDbCircle
 62
9
  6
CONTINUOUS
 10
2911.7161188855
 20
1466.9666190582
 40
37.4344941014
100
AcDbArc
 50
300.0176303861
 51
303.380964762
  0
ARC
  5
549
100
AcDbEntity
  8
7_ALL_ROUNDS
100
AcDbCircle
 62
7
  6
CONTINUOUS
 10
-804.0147836888
 20
605.2372254612
 40
2200.0
100
AcDbArc
 50
351.2098271332
 51
357.0376359722
  0
ARC
  5
54A
100
AcDbEntity
  8
6_ALL_SURFS
100
AcDbCircle
 62
7
  6
CONTINUOUS
 10
3278.1054844867
 20
605.2372254612
 40
2200.0
100
AcDbArc
 50
182.9623640278
 51
188.7901728668
  0
ARC
  5
54B
100
AcDbEntity
  8
0
100
AcDbCircle
 62
7
  6
CONTINUOUS
 10
1237.0453503989
 20
1234.0870237902
 40
1000.0
100
AcDbArc
 50
274.4448800179
 51
277.0001934237
  0
ARC
  5
54C
100
AcDbEntity
  8
6_ALL_SURFS
100
AcDbCircle
 62
7
  6
CONTINUOUS
 10
1237.0453503989
 20
1234.0870237902
 40
1000.0
100
AcDbArc
 50
262.9998065763
 51
265.5551199821
  0
ARC
  5
54D
100
AcDbEntity
  8
6_ALL_SURFS
100
AcDbCircle
 62
7
  6
CONTINUOUS
 10
1237.0453503989
 20
1418.5412835708
 40
900.0
100
AcDbArc
 50
262.4661961157
 51
277.5338038843
  0
ARC
  5
54E
100
AcDbEntity
  8
0
100
AcDbCircle
 62
7
  6
CONTINUOUS
 10
1306.8970555891
 20
278.8215291531
 40
64.0
100
AcDbArc
 50
324.3731574025
 51
351.2098271332
  0
ARC
  5
54F
100
AcDbEntity
  8
6_ALL_SURFS
100
AcDbCircle
 62
7
  6
CONTINUOUS
 10
1167.1936452088
 20
278.8215291531
 40
64.0
100
AcDbArc
 50
188.7901728668
 51
215.6268425975
  0
ARC
  5
550
100
AcDbEntity
  8
0
100
AcDbCircle
 62
7
  6
CONTINUOUS
 10
1345.1144458784
 20
477.3065235855
 40
50.0
100
AcDbArc
 50
16.5406300743
 51
78.5438396512
  0
ARC
  5
551
100
AcDbEntity
  8
6_ALL_SURFS
100
AcDbCircle
 62
7
  6
CONTINUOUS
 10
1128.9762549195
 20
477.3065235855
 40
50.0
100
AcDbArc
 50
101.4561603488
 51
163.4593699257
  0
CIRCLE
  5
552
100
AcDbEntity
  8
6_ALL_SURFS
100
AcDbCircle
 62
7
  6
CONTINUOUS
 10
1237.0453503989
 20
391.5412835708
 40
18.0
  0
CIRCLE
  5
553
100
AcDbEntity
  8
6_ALL_SURFS
100
AcDbCircle
 62
7
  6
CONTINUOUS
 10
1116.0453503989
 20
493.8412835708
 40
15.8816349035
  0
CIRCLE
  5
554
100
AcDbEntity
  8
0
100
AcDbCircle
 62
7
  6
CONTINUOUS
 10
1358.0453503989
 20
493.8412835708
 40
15.8816349035
  0
CIRCLE
  5
555
100
AcDbEntity
  8
0
100
AcDbCircle
 62
7
  6
CONTINUOUS
 10
1358.0453503989
 20
493.8412835708
 40
15.0
  0
CIRCLE
  5
556
100
AcDbEntity
  8
6_ALL_SURFS
100
AcDbCircle
 62
7
  6
CONTINUOUS
 10
1116.0453503989
 20
493.8412835708
 40
15.0
  0
ARC
  5
557
100
AcDbEntity
  8
6_ALL_SURFS
100
AcDbCircle
 62
7
  6
CONTINUOUS
 10
1181.5453503989
 20
295.0412835708
 40
12.0
100
AcDbArc
 50
180.0
 51
270.0
  0
ARC
  5
558
100
AcDbEntity
  8
0
100
AcDbCircle
 62
7
  6
CONTINUOUS
 10
1292.5453503989
 20
295.0412835708
 40
12.0
100
AcDbArc
 50
270.0
 51
360.0
  0
ARC
  5
559
100
AcDbEntity
  8
7_ALL_ROUNDS
100
AcDbCircle
 62
9
  6
CONTINUOUS
 10
2460.3420263491
 20
1188.7286616622
 40
15.0564455285
100
AcDbArc
 50
193.500131883
 51
269.655961314
  0
ARC
  5
55A
100
AcDbEntity
  8
6_ALL_SURFS
100
AcDbCircle
 62
9
  6
CONTINUOUS
 10
2568.4533671801
 20
1188.7286616622
 40
15.0564455285
100
AcDbArc
 50
270.344038686
 51
346.499868117
  0
CIRCLE
  5
55B
100
AcDbEntity
  8
0
100
AcDbCircle
 62
7
  6
CONTINUOUS
 10
2576.3976967646
 20
1051.3967604283
 40
11.0
  0
CIRCLE
  5
55C
100
AcDbEntity
  8
0
100
AcDbCircle
 62
7
  6
CONTINUOUS
 10
2492.3976967646
 20
1051.3967604283
 40
11.0
  0
CIRCLE
  5
55D
100
AcDbEntity
  8
0
100
AcDbCircle
 62
7
  6
CONTINUOUS
 10
2450.3976967646
 20
1051.3967604283
 40
11.0
  0
CIRCLE
  5
55E
100
AcDbEntity
  8
0
100
AcDbCircle
 62
7
  6
CONTINUOUS
 10
2488.8976967646
 20
1083.8967604283
 40
7.0
  0
CIRCLE
  5
55F
100
AcDbEntity
  8
0
100
AcDbCircle
 62
7
  6
CONTINUOUS
 10
2446.8976967646
 20
1083.8967604283
 40
7.0
  0
CIRCLE
  5
560
100
AcDbEntity
  8
0
100
AcDbCircle
 62
7
  6
CONTINUOUS
 10
2539.8976967646
 20
1118.8967604283
 40
7.0
  0
CIRCLE
  5
561
100
AcDbEntity
  8
0
100
AcDbCircle
 62
7
  6
CONTINUOUS
 10
2497.8976967646
 20
1118.8967604283
 40
7.0
  0
CIRCLE
  5
562
100
AcDbEntity
  8
0
100
AcDbCircle
 62
7
  6
CONTINUOUS
 10
2455.8976967646
 20
1118.8967604283
 40
7.0
  0
ARC
  5
563
100
AcDbEntity
  8
6_ALL_SURFS
100
AcDbCircle
 62
7
  6
CONTINUOUS
 10
2621.3976967646
 20
885.3967604283
 40
6.1810969576
100
AcDbArc
 50
270.0
 51
360.0
  0
ARC
  5
564
100
AcDbEntity
  8
6_ALL_SURFS
100
AcDbCircle
 62
7
  6
CONTINUOUS
 10
2621.3976967646
 20
1145.3967604283
 40
6.1810969576
100
AcDbArc
 50
0.0
 51
90.0
  0
ARC
  5
565
100
AcDbEntity
  8
0
100
AcDbCircle
 62
7
  6
CONTINUOUS
 10
2407.3976967646
 20
1145.3967604283
 40
6.1810969576
100
AcDbArc
 50
90.0
 51
180.0
  0
ARC
  5
566
100
AcDbEntity
  8
0
100
AcDbCircle
 62
7
  6
CONTINUOUS
 10
2407.3976967646
 20
885.3967604283
 40
6.1810969576
100
AcDbArc
 50
180.0
 51
270.0
  0
CIRCLE
  5
567
100
AcDbEntity
  8
0
100
AcDbCircle
 62
7
  6
CONTINUOUS
 10
2535.3976967646
 20
1051.3967604283
 40
5.5
  0
ARC
  5
568
100
AcDbEntity
  8
6_ALL_SURFS
100
AcDbCircle
 62
7
  6
CONTINUOUS
 10
2621.3976967646
 20
1145.3967604283
 40
5.0
100
AcDbArc
 50
0.0
 51
90.0
  0
ARC
  5
569
100
AcDbEntity
  8
6_ALL_SURFS
100
AcDbCircle
 62
7
  6
CONTINUOUS
 10
2621.3976967646
 20
885.3967604283
 40
5.0
100
AcDbArc
 50
270.0
 51
360.0
  0
ARC
  5
56A
100
AcDbEntity
  8
0
100
AcDbCircle
 62
7
  6
CONTINUOUS
 10
2407.3976967646
 20
885.3967604283
 40
5.0
100
AcDbArc
 50
180.0
 51
270.0
  0
ARC
  5
56B
100
AcDbEntity
  8
0
100
AcDbCircle
 62
7
  6
CONTINUOUS
 10
2407.3976967646
 20
1145.3967604283
 40
5.0
100
AcDbArc
 50
90.0
 51
180.0
  0
SPLINE
  5
56C
100
AcDbEntity
  8
0
100
AcDbSpline
 62
7
  6
CONTINUOUS
 70
0
 71
3
 72
13
 73
9
 74
0
 42
0.0000001
 43
0.0000001
 44
0.0000000001
 40
0.0
 40
0.0
 40
0.0
 40
0.0
 40
0.1317357684
 40
0.2713541552
 40
0.4178991716
 40
0.5930152361
 40
0.7698067128
 40
1.0
 40
1.0
 40
1.0
 40
1.0
 10
3067.8169546169
 20
360.1786529654
 30
0.0
 10
3066.7940826953
 20
360.1024687858
 30
0.0
 10
3064.6871337587
 20
359.9455418425
 30
0.0
 10
3061.831798341
 20
358.1762132773
 30
0.0
 10
3059.7820082557
 20
355.205829266
 30
0.0
 10
3058.4491288383
 20
351.5737034844
 30
0.0
 10
3057.6983697599
 20
347.133735851
 30
0.0
 10
3057.6292451579
 20
343.9963767523
 30
0.0
 10
3057.5934194779
 20
342.2216325251
 30
0.0
  0
SPLINE
  5
56D
100
AcDbEntity
  8
0
100
AcDbSpline
 62
7
  6
CONTINUOUS
 70
0
 71
3
 72
13
 73
9
 74
0
 42
0.0000001
 43
0.0000001
 44
0.0000000001
 40
0.0
 40
0.0
 40
0.0
 40
0.0
 40
0.2249509061
 40
0.4029463322
 40
0.5792549365
 40
0.726797924
 40
0.8673671114
 40
1.0
 40
1.0
 40
1.0
 40
1.0
 10
3057.5965962206
 20
341.9462256474
 30
0.0
 10
3057.6317158374
 20
340.2236527828
 30
0.0
 10
3057.7070780519
 20
337.1390085223
 30
0.0
 10
3058.4491282238
 20
332.750508149
 30
0.0
 10
3059.782023603
 20
329.118788595
 30
0.0
 10
3061.8317497534
 20
326.1471439699
 30
0.0
 10
3064.6873030909
 20
324.3820448339
 30
0.0
 10
3066.7937383542
 20
324.2151589042
 30
0.0
 10
3067.8169546169
 20
324.1389491067
 30
0.0
  0
SPLINE
  5
56E
100
AcDbEntity
  8
0
100
AcDbSpline
 62
7
  6
CONTINUOUS
 70
0
 71
3
 72
13
 73
9
 74
0
 42
0.0000001
 43
0.0000001
 44
0.0000000001
 40
0.0
 40
0.0
 40
0.0
 40
0.0
 40
0.1604571392
 40
0.3334692485
 40
0.4767982758
 40
0.6242014838
 40
0.7505998515
 40
1.0
 40
1.0
 40
1.0
 40
1.0
 10
3044.9473875204
 20
324.1389308334
 30
0.0
 10
3045.7955801616
 20
324.1797697954
 30
0.0
 10
3047.5583322449
 20
324.264643116
 30
0.0
 10
3049.9287344812
 20
325.293763067
 30
0.0
 10
3051.7149106689
 20
327.0236278106
 30
0.0
 10
3052.7214912012
 20
329.0068509072
 30
0.0
 10
3053.4932214803
 20
331.6673650071
 30
0.0
 10
3053.5245383197
 20
333.6583675409
 30
0.0
 10
3053.5453218563
 20
334.979704114
 30
0.0
  0
SPLINE
  5
56F
100
AcDbEntity
  8
0
100
AcDbSpline
 62
7
  6
CONTINUOUS
 70
0
 71
3
 72
13
 73
9
 74
0
 42
0.0000001
 43
0.0000001
 44
0.0000000001
 40
0.0
 40
0.0
 40
0.0
 40
0.0
 40
0.2494001485
 40
0.3757985162
 40
0.5232017242
 40
0.6665307515
 40
0.8395428608
 40
1.0
 40
1.0
 40
1.0
 40
1.0
 10
3053.5453218563
 20
334.979704114
 30
0.0
 10
3053.5245383197
 20
336.3010407018
 30
0.0
 10
3053.4932214803
 20
338.292043221
 30
0.0
 10
3052.7214912012
 20
340.9525573501
 30
0.0
 10
3051.7149106689
 20
342.9357804467
 30
0.0
 10
3049.9287344812
 20
344.6656451611
 30
0.0
 10
3047.5583322449
 20
345.6947651121
 30
0.0
 10
3045.7955801616
 20
345.7796384619
 30
0.0
 10
3044.9473875204
 20
345.8204773947
 30
0.0
  0
SPLINE
  5
570
100
AcDbEntity
  8
0
100
AcDbSpline
 62
7
  6
CONTINUOUS
 70
0
 71
3
 72
13
 73
9
 74
0
 42
0.0000001
 43
0.0000001
 44
0.0000000001
 40
0.0
 40
0.0
 40
0.0
 40
0.0
 40
0.1133740464
 40
0.2392044088
 40
0.3655787964
 40
0.4912154373
 40
0.7445390876
 40
1.0
 40
1.0
 40
1.0
 40
1.0
 10
3000.3995003558
 20
360.1786529581
 30
0.0
 10
2999.8188744829
 20
360.1500544178
 30
0.0
 10
2998.5938298478
 20
360.0897152247
 30
0.0
 10
2996.7741472205
 20
359.5460484195
 30
0.0
 10
2995.1462637678
 20
358.4482158
 30
0.0
 10
2993.4833663151
 20
356.4259662577
 30
0.0
 10
2992.4369657549
 20
353.2513035307
 30
0.0
 10
2992.323483448
 20
350.6483208601
 30
0.0
 10
2992.2665039799
 20
349.3413623125
 30
0.0
  0
SPLINE
  5
571
100
AcDbEntity
  8
0
100
AcDbSpline
 62
7
  6
CONTINUOUS
 70
0
 71
3
 72
13
 73
9
 74
0
 42
0.0000001
 43
0.0000001
 44
0.0000000001
 40
0.0
 40
0.0
 40
0.0
 40
0.0
 40
0.2554609124
 40
0.5087845627
 40
0.6344212036
 40
0.7607955912
 40
0.8866259536
 40
1.0
 40
1.0
 40
1.0
 40
1.0
 10
2992.2665039799
 20
349.3413623125
 30
0.0
 10
2992.323483448
 20
348.0344037503
 30
0.0
 10
2992.4369657549
 20
345.431421065
 30
0.0
 10
2993.4833663151
 20
342.2567583526
 30
0.0
 10
2995.1462637678
 20
340.2345088103
 30
0.0
 10
2996.7741472205
 20
339.1366762055
 30
0.0
 10
2998.5938298478
 20
338.5930093857
 30
0.0
 10
2999.8188744829
 20
338.5326701925
 30
0.0
 10
3000.3995003558
 20
338.5040716669
 30
0.0
  0
SPLINE
  5
572
100
AcDbEntity
  8
0
100
AcDbSpline
 62
7
  6
CONTINUOUS
 70
0
 71
3
 72
12
 73
8
 74
0
 42
0.0000001
 43
0.0000001
 44
0.0000000001
 40
0.0
 40
0.0
 40
0.0
 40
0.0
 40
0.2415790084
 40
0.4893269843
 40
0.7378634303
 40
0.8656387112
 40
1.0
 40
1.0
 40
1.0
 40
1.0
 10
2979.4078769997
 20
324.138930848
 30
0.0
 10
2980.3994896087
 20
324.1697589589
 30
0.0
 10
2982.4080367279
 20
324.2322024424
 30
0.0
 10
2985.3473358357
 20
325.2804346701
 30
0.0
 10
2987.1324300467
 20
327.2592197227
 30
0.0
 10
2987.918883307
 20
329.236392037
 30
0.0
 10
2987.9330563461
 20
330.3194828459
 30
0.0
 10
2987.9403209103
 20
330.8746342079
 30
0.0
  0
SPLINE
  5
573
100
AcDbEntity
  8
0
100
AcDbSpline
 62
7
  6
CONTINUOUS
 70
0
 71
3
 72
12
 73
8
 74
0
 42
0.0000001
 43
0.0000001
 44
0.0000000001
 40
0.0
 40
0.0
 40
0.0
 40
0.0
 40
0.1343612888
 40
0.2621365697
 40
0.5106730157
 40
0.7584209916
 40
1.0
 40
1.0
 40
1.0
 40
1.0
 10
2987.9403209103
 20
353.4006793076
 30
0.0
 10
2987.9330563461
 20
353.9558306988
 30
0.0
 10
2987.918883307
 20
355.0389215077
 30
0.0
 10
2987.1324300467
 20
357.016093822
 30
0.0
 10
2985.3473358357
 20
358.9948788745
 30
0.0
 10
2982.4080367279
 20
360.0431110877
 30
0.0
 10
2980.3994896087
 20
360.1055545566
 30
0.0
 10
2979.4078769997
 20
360.1363826821
 30
0.0
  0
SPLINE
  5
574
100
AcDbEntity
  8
0
100
AcDbSpline
 62
7
  6
CONTINUOUS
 70
0
 71
3
 72
12
 73
8
 74
0
 42
0.0000001
 43
0.0000001
 44
0.0000000001
 40
0.0
 40
0.0
 40
0.0
 40
0.0
 40
0.1341799809
 40
0.290831959
 40
0.5815217441
 40
0.760783857
 40
1.0
 40
1.0
 40
1.0
 40
1.0
 10
2933.5219189738
 20
360.1363826821
 30
0.0
 10
2932.5210647654
 20
359.9653271908
 30
0.0
 10
2930.3517367776
 20
359.594568422
 30
0.0
 10
2926.7000212561
 20
356.8663802366
 30
0.0
 10
2924.9703834738
 20
352.2764775867
 30
0.0
 10
2923.9583878647
 20
347.0733999205
 30
0.0
 10
2923.8824205222
 20
343.9263413787
 30
0.0
 10
2923.8389950371
 20
342.1273776508
 30
0.0
  0
SPLINE
  5
575
100
AcDbEntity
  8
0
100
AcDbSpline
 62
7
  6
CONTINUOUS
 70
0
 71
3
 72
12
 73
8
 74
0
 42
0.0000001
 43
0.0000001
 44
0.0000000001
 40
0.0
 40
0.0
 40
0.0
 40
0.0
 40
0.2392679579
 40
0.4185688994
 40
0.7093216488
 40
0.8660075581
 40
1.0
 40
1.0
 40
1.0
 40
1.0
 10
2923.8389950371
 20
342.1273776508
 30
0.0
 10
2923.8824378739
 20
340.3284840318
 30
0.0
 10
2923.9584355306
 20
337.1815481513
 30
0.0
 10
2924.9702127663
 20
331.9775875405
 30
0.0
 10
2926.7009073317
 20
327.3919580208
 30
0.0
 10
2930.3488208949
 20
324.6549108648
 30
0.0
 10
2932.5207407167
 20
324.3017332428
 30
0.0
 10
2933.5219189738
 20
324.138930848
 30
0.0
  0
SPLINE
  5
576
100
AcDbEntity
  8
6_ALL_SURFS
100
AcDbSpline
 62
9
  6
CONTINUOUS
 70
0
 71
3
 72
9
 73
5
 74
0
 42
0.0000001
 43
0.0000001
 44
0.0000000001
 40
0.0
 40
0.0
 40
0.0
 40
0.0
 40
0.2780359101
 40
1.0
 40
1.0
 40
1.0
 40
1.0
 10
1182.8992724761
 20
1601.5926181215
 30
0.0
 10
1182.9328209362
 20
1600.2081579346
 30
0.0
 10
1183.0150742913
 20
1595.2283684622
 30
0.0
 10
1182.9735277291
 20
1590.2429643317
 30
0.0
 10
1182.7790654179
 20
1586.6522016099
 30
0.0
  0
SPLINE
  5
577
100
AcDbEntity
  8
7_ALL_ROUNDS
100
AcDbSpline
 62
9
  6
CONTINUOUS
 70
0
 71
3
 72
9
 73
5
 74
0
 42
0.0000001
 43
0.0000001
 44
0.0000000001
 40
0.0
 40
0.0
 40
0.0
 40
0.0
 40
0.2780359101
 40
1.0
 40
1.0
 40
1.0
 40
1.0
 10
1291.1914283218
 20
1601.5926181215
 30
0.0
 10
1291.1578798616
 20
1600.2081579346
 30
0.0
 10
1291.0756265066
 20
1595.2283684622
 30
0.0
 10
1291.1171730688
 20
1590.2429643317
 30
0.0
 10
1291.31163538
 20
1586.6522016099
 30
0.0
  0
SPLINE
  5
578
100
AcDbEntity
  8
7_ALL_ROUNDS
100
AcDbSpline
 62
9
  6
CONTINUOUS
 70
0
 71
3
 72
9
 73
5
 74
0
 42
0.0000001
 43
0.0000001
 44
0.0000000001
 40
0.0
 40
0.0
 40
0.0
 40
0.0
 40
0.2780986101
 40
1.0
 40
1.0
 40
1.0
 40
1.0
 10
1305.7414474639
 20
1601.3797423185
 30
0.0
 10
1305.7077258937
 20
1600.8985928319
 30
0.0
 10
1305.6258368764
 20
1599.1673507023
 30
0.0
 10
1305.6674766298
 20
1597.4199808853
 30
0.0
 10
1305.8616545222
 20
1596.1830757058
 30
0.0
  0
SPLINE
  5
579
100
AcDbEntity
  8
7_ALL_ROUNDS
100
AcDbSpline
 62
9
  6
CONTINUOUS
 70
0
 71
3
 72
9
 73
5
 74
0
 42
0.0000001
 43
0.0000001
 44
0.0000000001
 40
0.0
 40
0.0
 40
0.0
 40
0.0
 40
0.5414239374
 40
1.0
 40
1.0
 40
1.0
 40
1.0
 10
1291.31163538
 20
1586.6522016099
 30
0.0
 10
1294.5730743382
 20
1586.8993168002
 30
0.0
 10
1300.5815133978
 20
1588.6747034334
 30
0.0
 10
1305.0586270549
 20
1593.5317177596
 30
0.0
 10
1305.8616548283
 20
1596.1830737551
 30
0.0
  0
SPLINE
  5
57A
100
AcDbEntity
  8
7_ALL_ROUNDS
100
AcDbSpline
 62
9
  6
CONTINUOUS
 70
0
 71
3
 72
11
 73
7
 74
0
 42
0.0000001
 43
0.0000001
 44
0.0000000001
 40
0.0
 40
0.0
 40
0.0
 40
0.0
 40
0.3370910384
 40
0.6365461764
 40
0.8657172543
 40
1.0
 40
1.0
 40
1.0
 40
1.0
 10
1291.1914283218
 20
1601.5926181215
 30
0.0
 10
1292.8245061578
 20
1601.4786978197
 30
0.0
 10
1295.9099177119
 20
1601.3003090714
 30
0.0
 10
1300.1158043246
 20
1601.1479042272
 30
0.0
 10
1303.3275070438
 20
1601.1701062233
 30
0.0
 10
1305.1047508316
 20
1601.2387082952
 30
0.0
 10
1305.7414474639
 20
1601.3797423185
 30
0.0
  0
SPLINE
  5
57B
100
AcDbEntity
  8
6_ALL_SURFS
100
AcDbSpline
 62
9
  6
CONTINUOUS
 70
0
 71
3
 72
11
 73
7
 74
0
 42
0.0000001
 43
0.0000001
 44
0.0000000001
 40
0.0
 40
0.0
 40
0.0
 40
0.0
 40
0.3370910384
 40
0.6365461764
 40
0.8657172543
 40
1.0
 40
1.0
 40
1.0
 40
1.0
 10
1182.8992724761
 20
1601.5926181215
 30
0.0
 10
1181.26619464
 20
1601.4786978197
 30
0.0
 10
1178.180783086
 20
1601.3003090714
 30
0.0
 10
1173.9748964733
 20
1601.1479042272
 30
0.0
 10
1170.7631937541
 20
1601.1701062233
 30
0.0
 10
1168.9859499663
 20
1601.2387082952
 30
0.0
 10
1168.349253334
 20
1601.3797423185
 30
0.0
  0
SPLINE
  5
57C
100
AcDbEntity
  8
6_ALL_SURFS
100
AcDbSpline
 62
9
  6
CONTINUOUS
 70
0
 71
3
 72
9
 73
5
 74
0
 42
0.0000001
 43
0.0000001
 44
0.0000000001
 40
0.0
 40
0.0
 40
0.0
 40
0.0
 40
0.5414239374
 40
1.0
 40
1.0
 40
1.0
 40
1.0
 10
1182.7790654179
 20
1586.6522016099
 30
0.0
 10
1179.5176264597
 20
1586.8993168002
 30
0.0
 10
1173.5091874001
 20
1588.6747034334
 30
0.0
 10
1169.032073743
 20
1593.5317177596
 30
0.0
 10
1168.2290459696
 20
1596.1830737551
 30
0.0
  0
SPLINE
  5
57D
100
AcDbEntity
  8
6_ALL_SURFS
100
AcDbSpline
 62
9
  6
CONTINUOUS
 70
0
 71
3
 72
9
 73
5
 74
0
 42
0.0000001
 43
0.0000001
 44
0.0000000001
 40
0.0
 40
0.0
 40
0.0
 40
0.0
 40
0.2780986101
 40
1.0
 40
1.0
 40
1.0
 40
1.0
 10
1168.349253334
 20
1601.3797423185
 30
0.0
 10
1168.3829749042
 20
1600.8985928319
 30
0.0
 10
1168.4648639215
 20
1599.1673507023
 30
0.0
 10
1168.4232241681
 20
1597.4199808853
 30
0.0
 10
1168.2290462757
 20
1596.1830757058
 30
0.0
  0
SPLINE
  5
57E
100
AcDbEntity
  8
0
100
AcDbSpline
 62
7
  6
CONTINUOUS
 70
0
 71
3
 72
9
 73
5
 74
0
 42
0.0000001
 43
0.0000001
 44
0.0000000001
 40
0.0
 40
0.0
 40
0.0
 40
0.0
 40
0.487773306
 40
1.0
 40
1.0
 40
1.0
 40
1.0
 10
2937.0416707345
 20
1719.8794398508
 30
0.0
 10
2942.9788237903
 20
1717.6062484806
 30
0.0
 10
2955.8675927939
 20
1714.7692989463
 30
0.0
 10
2969.0223924878
 20
1714.914543558
 30
0.0
 10
2975.6429363856
 20
1715.774548416
 30
0.0
  0
SPLINE
  5
57F
100
AcDbEntity
  8
0
100
AcDbSpline
 62
7
  6
CONTINUOUS
 70
0
 71
3
 72
9
 73
5
 74
0
 42
0.0000001
 43
0.0000001
 44
0.0000000001
 40
0.0
 40
0.0
 40
0.0
 40
0.0
 40
0.4960020244
 40
1.0
 40
1.0
 40
1.0
 40
1.0
 10
2937.0416707345
 20
1351.2795127243
 30
0.0
 10
2945.0907612492
 20
1348.1977119144
 30
0.0
 10
2962.5704791561
 20
1345.2205508036
 30
0.0
 10
2980.1392612824
 20
1347.3438912925
 30
0.0
 10
2988.4971864502
 20
1349.9601530833
 30
0.0
  0
SPLINE
  5
580
100
AcDbEntity
  8
7_ALL_ROUNDS
100
AcDbSpline
 62
7
  6
CONTINUOUS
 70
0
 71
3
 72
9
 73
5
 74
0
 42
0.0000001
 43
0.0000001
 44
0.0000000001
 40
0.0
 40
0.0
 40
0.0
 40
0.0
 40
0.2279406718
 40
1.0
 40
1.0
 40
1.0
 40
1.0
 10
3077.1037820933
 20
1410.4015652948
 30
0.0
 10
3077.245508273
 20
1410.5045877632
 30
0.0
 10
3077.8408290867
 20
1410.9928004908
 30
0.0
 10
3078.3361548747
 20
1411.5948645784
 30
0.0
 10
3078.6680404825
 20
1412.0868571569
 30
0.0
  0
SPLINE
  5
581
100
AcDbEntity
  8
0
100
AcDbSpline
 62
7
  6
CONTINUOUS
 70
0
 71
3
 72
9
 73
5
 74
0
 42
0.0000001
 43
0.0000001
 44
0.0000000001
 40
0.0
 40
0.0
 40
0.0
 40
0.0
 40
0.2242441651
 40
1.0
 40
1.0
 40
1.0
 40
1.0
 10
2896.3307168021
 20
1698.9428307971
 30
0.0
 10
2896.6743529903
 20
1699.4198985155
 30
0.0
 10
2897.9826812727
 20
1701.7114424791
 30
0.0
 10
2898.3789766547
 20
1704.4247444074
 30
0.0
 10
2898.3789766547
 20
1706.4586962827
 30
0.0
  0
SPLINE
  5
582
100
AcDbEntity
  8
0
100
AcDbSpline
 62
7
  6
CONTINUOUS
 70
0
 71
3
 72
17
 73
13
 74
0
 42
0.0000001
 43
0.0000001
 44
0.0000000001
 40
0.0
 40
0.0
 40
0.0
 40
0.0
 40
0.0428555417
 40
0.087480801
 40
0.1353108525
 40
0.187272216
 40
0.3045323253
 40
0.4382006934
 40
0.5825479819
 40
0.7297081518
 40
0.871308686
 40
1.0
 40
1.0
 40
1.0
 40
1.0
 10
2932.4871416374
 20
1419.5664391956
 30
0.0
 10
2935.5988254372
 20
1421.3634426932
 30
0.0
 10
2941.4973270568
 20
1425.8792767794
 30
0.0
 10
2948.5947878558
 20
1434.8569099495
 30
0.0
 10
2953.8991192199
 20
1445.8360644335
 30
0.0
 10
2958.6600055937
 20
1463.4892168099
 30
0.0
 10
2959.2548148495
 20
1489.2266085485
 30
0.0
 10
2952.5885195837
 20
1521.8901551286
 30
0.0
 10
2939.161835332
 20
1555.1125961167
 30
0.0
 10
2920.0501069655
 20
1586.1941511158
 30
0.0
 10
2896.8324180783
 20
1612.6078809745
 30
0.0
 10
2878.6938007303
 20
1626.5679167023
 30
0.0
 10
2869.3496938203
 20
1631.9641521056
 30
0.0
  0
SPLINE
  5
583
100
AcDbEntity
  8
0
100
AcDbSpline
 62
7
  6
CONTINUOUS
 70
0
 71
3
 72
11
 73
7
 74
0
 42
0.0000001
 43
0.0000001
 44
0.0000000001
 40
0.0
 40
0.0
 40
0.0
 40
0.0
 40
0.2239274272
 40
0.4597667345
 40
0.7168000356
 40
1.0
 40
1.0
 40
1.0
 40
1.0
 10
2925.9171555975
 20
1442.3323704828
 30
0.0
 10
2922.2802043787
 20
1440.2354380298
 30
0.0
 10
2914.0037837784
 20
1437.2139457524
 30
0.0
 10
2900.3868839629
 20
1436.8275578316
 30
0.0
 10
2886.1069881751
 20
1440.2332675874
 30
0.0
 10
2876.8968159008
 20
1444.6076801498
 30
0.0
 10
2872.2990485162
 20
1447.2628975372
 30
0.0
  0
SPLINE
  5
584
100
AcDbEntity
  8
0
100
AcDbSpline
 62
7
  6
CONTINUOUS
 70
0
 71
3
 72
16
 73
12
 74
0
 42
0.0000001
 43
0.0000001
 44
0.0000000001
 40
0.0
 40
0.0
 40
0.0
 40
0.0
 40
0.1295093615
 40
0.2729428062
 40
0.4223367886
 40
0.5688284551
 40
0.7039824189
 40
0.8212234431
 40
0.9179467708
 40
0.9601005637
 40
1.0
 40
1.0
 40
1.0
 40
1.0
 10
2872.2990485162
 20
1609.3162431287
 30
0.0
 10
2879.3767287821
 20
1605.2288724263
 30
0.0
 10
2893.1568072068
 20
1594.6114121971
 30
0.0
 10
2910.8434643833
 20
1574.5067859825
 30
0.0
 10
2925.4611694067
 20
1550.793169964
 30
0.0
 10
2935.7628331308
 20
1525.4752083933
 30
0.0
 10
2940.8989509704
 20
1500.6561055133
 30
0.0
 10
2940.5333010172
 20
1478.4185377113
 30
0.0
 10
2935.276609476
 20
1462.6754386755
 30
0.0
 10
2928.2597213476
 20
1453.7122461304
 30
0.0
 10
2924.0984720583
 20
1450.5180372937
 30
0.0
 10
2921.9173000854
 20
1449.2599544751
 30
0.0
  0
SPLINE
  5
585
100
AcDbEntity
  8
0
100
AcDbSpline
 62
7
  6
CONTINUOUS
 70
0
 71
3
 72
11
 73
7
 74
0
 42
0.0000001
 43
0.0000001
 44
0.0000000001
 40
0.0
 40
0.0
 40
0.0
 40
0.0
 40
0.223596381
 40
0.4608924456
 40
0.7185752784
 40
1.0
 40
1.0
 40
1.0
 40
1.0
 10
2925.4847384538
 20
1432.1263391533
 30
0.0
 10
2921.6520411919
 20
1430.5651626806
 30
0.0
 10
2913.2126089514
 20
1428.5657921096
 30
0.0
 10
2899.7937394241
 20
1429.1226844932
 30
0.0
 10
2885.8379933794
 20
1432.938104916
 30
0.0
 10
2876.809689858
 20
1437.3104887139
 30
0.0
 10
2872.2990485162
 20
1439.9153906841
 30
0.0
  0
SPLINE
  5
586
100
AcDbEntity
  8
0
100
AcDbSpline
 62
7
  6
CONTINUOUS
 70
0
 71
3
 72
17
 73
13
 74
0
 42
0.0000001
 43
0.0000001
 44
0.0000000001
 40
0.0
 40
0.0
 40
0.0
 40
0.0
 40
0.1293657171
 40
0.2725565634
 40
0.421674145
 40
0.5679099438
 40
0.7028873898
 40
0.8201088116
 40
0.8712171678
 40
0.9174839586
 40
0.9598520764
 40
1.0
 40
1.0
 40
1.0
 40
1.0
 10
2872.2990485162
 20
1616.6637499818
 30
0.0
 10
2880.0397046602
 20
1612.1935097404
 30
0.0
 10
2895.107071916
 20
1600.5867065071
 30
0.0
 10
2914.4429970168
 20
1578.6096351353
 30
0.0
 10
2930.4219000106
 20
1552.6954535409
 30
0.0
 10
2941.6807223455
 20
1525.0113531907
 30
0.0
 10
2947.3094935251
 20
1497.9011674921
 30
0.0
 10
2946.9360814781
 20
1476.6622963464
 30
0.0
 10
2943.1422749309
 20
1462.2567235211
 30
0.0
 10
2938.965963845
 20
1453.4761788922
 30
0.0
 10
2933.4373449082
 20
1446.4034843102
 30
0.0
 10
2928.8606821267
 20
1442.8800821204
 30
0.0
 10
2926.4598186114
 20
1441.4903370156
 30
0.0
  0
SPLINE
  5
587
100
AcDbEntity
  8
0
100
AcDbSpline
 62
7
  6
CONTINUOUS
 70
0
 71
3
 72
17
 73
13
 74
0
 42
0.0000001
 43
0.0000001
 44
0.0000000001
 40
0.0
 40
0.0
 40
0.0
 40
0.0
 40
0.0428555417
 40
0.087480801
 40
0.1353108525
 40
0.187272216
 40
0.3045323253
 40
0.4382006934
 40
0.5825479819
 40
0.7297081518
 40
0.871308686
 40
1.0
 40
1.0
 40
1.0
 40
1.0
 10
2807.7125417928
 20
1635.6255728908
 30
0.0
 10
2804.6747989942
 20
1633.8712704664
 30
0.0
 10
2798.9164597893
 20
1629.4627433288
 30
0.0
 10
2791.9876515242
 20
1620.6984400558
 30
0.0
 10
2786.8093636776
 20
1609.9801763714
 30
0.0
 10
2782.1616072771
 20
1592.7465048436
 30
0.0
 10
2781.5809321026
 20
1567.6206946908
 30
0.0
 10
2788.0888203522
 20
1535.7333115938
 30
0.0
 10
2801.1964546811
 20
1503.300314748
 30
0.0
 10
2819.8540429676
 20
1472.9573313529
 30
0.0
 10
2842.520024396
 20
1447.1712544809
 30
0.0
 10
2860.2276250942
 20
1433.5429423744
 30
0.0
 10
2869.3496938203
 20
1428.2749343469
 30
0.0
  0
SPLINE
  5
588
100
AcDbEntity
  8
0
100
AcDbSpline
 62
7
  6
CONTINUOUS
 70
0
 71
3
 72
16
 73
12
 74
0
 42
0.0000001
 43
0.0000001
 44
0.0000000001
 40
0.0
 40
0.0
 40
0.0
 40
0.0
 40
0.1281207128
 40
0.2682586885
 40
0.4135961845
 40
0.5561823549
 40
0.6886515911
 40
0.8060269089
 40
0.9077672366
 40
0.9545633115
 40
1.0
 40
1.0
 40
1.0
 40
1.0
 10
2872.2990485162
 20
1447.2628975372
 30
0.0
 10
2864.6793789376
 20
1451.6632678602
 30
0.0
 10
2849.9289414373
 20
1463.0062768063
 30
0.0
 10
2831.0986555949
 20
1484.453299599
 30
0.0
 10
2815.6642393584
 20
1509.6414198592
 30
0.0
 10
2804.8544349687
 20
1536.5678580862
 30
0.0
 10
2799.5499057261
 20
1563.1825859981
 30
0.0
 10
2800.2309746245
 20
1587.5637667457
 30
0.0
 10
2806.4818029792
 20
1605.2404060558
 30
0.0
 10
2814.876772413
 20
1615.7294822057
 30
0.0
 10
2819.9783920921
 20
1619.6158762426
 30
0.0
 10
2822.6817269797
 20
1621.1745198196
 30
0.0
  0
SPLINE
  5
589
100
AcDbEntity
  8
0
100
AcDbSpline
 62
7
  6
CONTINUOUS
 70
0
 71
3
 72
11
 73
7
 74
0
 42
0.0000001
 43
0.0000001
 44
0.0000000001
 40
0.0
 40
0.0
 40
0.0
 40
0.0
 40
0.210035966
 40
0.4399462406
 40
0.701980943
 40
1.0
 40
1.0
 40
1.0
 40
1.0
 10
2826.6815824917
 20
1614.2469358273
 30
0.0
 10
2829.5860427642
 20
1615.9222056417
 30
0.0
 10
2836.3435242098
 20
1618.3546118176
 30
0.0
 10
2847.7006526056
 20
1618.5913707546
 30
0.0
 10
2860.0588531573
 20
1615.5737331593
 30
0.0
 10
2868.1791887133
 20
1611.6954681889
 30
0.0
 10
2872.2990485162
 20
1609.3162431287
 30
0.0
  0
SPLINE
  5
58A
100
AcDbEntity
  8
6_ALL_SURFS
100
AcDbSpline
 62
7
  6
CONTINUOUS
 70
0
 71
3
 72
9
 73
5
 74
0
 42
0.0000001
 43
0.0000001
 44
0.0000000001
 40
0.0
 40
0.0
 40
0.0
 40
0.0
 40
0.2623559304
 40
1.0
 40
1.0
 40
1.0
 40
1.0
 10
2770.1644703745
 20
1447.6513399375
 30
0.0
 10
2785.5932599595
 20
1440.822690812
 30
0.0
 10
2843.7312635118
 20
1413.3448518301
 30
0.0
 10
2899.1550750166
 20
1379.8283758363
 30
0.0
 10
2937.0416707345
 20
1351.2795127243
 30
0.0
  0
SPLINE
  5
58B
100
AcDbEntity
  8
0
100
AcDbSpline
 62
7
  6
CONTINUOUS
 70
0
 71
3
 72
16
 73
12
 74
0
 42
0.0000001
 43
0.0000001
 44
0.0000000001
 40
0.0
 40
0.0
 40
0.0
 40
0.0
 40
0.1266519292
 40
0.265056815
 40
0.4089684152
 40
0.5510329389
 40
0.6842566131
 40
0.8035215246
 40
0.9073291288
 40
0.9546464897
 40
1.0
 40
1.0
 40
1.0
 40
1.0
 10
2872.2990485162
 20
1439.9153906841
 30
0.0
 10
2864.3123134416
 20
1444.5277418678
 30
0.0
 10
2848.8143690966
 20
1456.3344765997
 30
0.0
 10
2828.8584245627
 20
1478.6224856481
 30
0.0
 10
2812.255874193
 20
1504.8544341336
 30
0.0
 10
2800.246920287
 20
1533.0701946944
 30
0.0
 10
2793.7381109157
 20
1561.2367082444
 30
0.0
 10
2793.2535899148
 20
1587.3953180353
 30
0.0
 10
2798.4514249783
 20
1606.8253126696
 30
0.0
 10
2806.1279630085
 20
1619.0156347855
 30
0.0
 10
2810.9590223318
 20
1623.8325943884
 30
0.0
 10
2813.5654131635
 20
1625.8609942597
 30
0.0
  0
SPLINE
  5
58C
100
AcDbEntity
  8
0
100
AcDbSpline
 62
7
  6
CONTINUOUS
 70
0
 71
3
 72
11
 73
7
 74
0
 42
0.0000001
 43
0.0000001
 44
0.0000000001
 40
0.0
 40
0.0
 40
0.0
 40
0.0
 40
0.2107454815
 40
0.4409559078
 40
0.7027334522
 40
1.0
 40
1.0
 40
1.0
 40
1.0
 10
2822.1824601093
 20
1622.0416279411
 30
0.0
 10
2825.384063843
 20
1623.8882023758
 30
0.0
 10
2832.8240778684
 20
1626.5680542243
 30
0.0
 10
2845.314132043
 20
1626.8323385863
 30
0.0
 10
2858.8792652846
 20
1623.5230799273
 30
0.0
 10
2867.7844725857
 20
1619.2709241828
 30
0.0
 10
2872.2990485162
 20
1616.6637499818
 30
0.0
  0
SPLINE
  5
58D
100
AcDbEntity
  8
0
100
AcDbSpline
 62
7
  6
CONTINUOUS
 70
0
 71
3
 72
11
 73
7
 74
0
 42
0.0000001
 43
0.0000001
 44
0.0000000001
 40
0.0
 40
0.0
 40
0.0
 40
0.0
 40
0.2177516159
 40
0.4509246716
 40
0.7101684234
 40
1.0
 40
1.0
 40
1.0
 40
1.0
 10
2812.7135277585
 20
1626.9658881736
 30
0.0
 10
2816.4492810486
 20
1629.1232930258
 30
0.0
 10
2825.0343543696
 20
1632.2415931994
 30
0.0
 10
2839.2921832969
 20
1632.597315675
 30
0.0
 10
2854.4912552457
 20
1628.930787261
 30
0.0
 10
2864.3773334761
 20
1624.2226320205
 30
0.0
 10
2869.3496938203
 20
1621.3510866513
 30
0.0
  0
SPLINE
  5
58E
100
AcDbEntity
  8
0
100
AcDbSpline
 62
7
  6
CONTINUOUS
 70
0
 71
3
 72
9
 73
5
 74
0
 42
0.0000001
 43
0.0000001
 44
0.0000000001
 40
0.0
 40
0.0
 40
0.0
 40
0.0
 40
0.7445013036
 40
1.0
 40
1.0
 40
1.0
 40
1.0
 10
2761.8376126448
 20
1468.0959148034
 30
0.0
 10
2761.8374708617
 20
1469.7027596577
 30
0.0
 10
2762.159654581
 20
1471.8764595286
 30
0.0
 10
2762.8563142205
 20
1473.9199321535
 30
0.0
 10
2763.0564512549
 20
1474.43377037
 30
0.0
  0
SPLINE
  5
58F
100
AcDbEntity
  8
6_ALL_SURFS
100
AcDbSpline
 62
7
  6
CONTINUOUS
 70
0
 71
3
 72
9
 73
5
 74
0
 42
0.0000001
 43
0.0000001
 44
0.0000000001
 40
0.0
 40
0.0
 40
0.0
 40
0.0
 40
0.4744153544
 40
1.0
 40
1.0
 40
1.0
 40
1.0
 10
2761.8377254651
 20
1836.6997137279
 30
0.0
 10
2761.8383522444
 20
1839.1197391614
 30
0.0
 10
2763.0154110058
 20
1844.2618858187
 30
0.0
 10
2766.0450595817
 20
1848.5021894683
 30
0.0
 10
2767.87987072
 20
1850.457045704
 30
0.0
  0
SPLINE
  5
590
100
AcDbEntity
  8
6_ALL_SURFS
100
AcDbSpline
 62
7
  6
CONTINUOUS
 70
0
 71
3
 72
9
 73
5
 74
0
 42
0.0000001
 43
0.0000001
 44
0.0000000001
 40
0.0
 40
0.0
 40
0.0
 40
0.0
 40
0.2623559304
 40
1.0
 40
1.0
 40
1.0
 40
1.0
 10
2770.1644703745
 20
1816.2512670639
 30
0.0
 10
2785.5932599595
 20
1809.4226179385
 30
0.0
 10
2843.7312635118
 20
1781.9447789565
 30
0.0
 10
2899.1550750166
 20
1748.4283029628
 30
0.0
 10
2937.0416707345
 20
1719.8794398508
 30
0.0
  0
SPLINE
  5
591
100
AcDbEntity
  8
0
100
AcDbSpline
 62
7
  6
CONTINUOUS
 70
0
 71
3
 72
11
 73
7
 74
0
 42
0.0000001
 43
0.0000001
 44
0.0000000001
 40
0.0
 40
0.0
 40
0.0
 40
0.0
 40
0.2898315766
 40
0.5490753284
 40
0.7822483841
 40
1.0
 40
1.0
 40
1.0
 40
1.0
 10
2869.3496938203
 20
1428.2749343469
 30
0.0
 10
2874.7611146805
 20
1425.1498308877
 30
0.0
 10
2885.520135801
 20
1420.0259445002
 30
0.0
 10
2902.0612891581
 20
1416.0356608178
 30
0.0
 10
2917.5780875271
 20
1416.4227936666
 30
0.0
 10
2926.9212247174
 20
1419.8164404338
 30
0.0
 10
2930.9868458477
 20
1422.1643446108
 30
0.0
  0
SPLINE
  5
592
100
AcDbEntity
  8
0
100
AcDbSpline
 62
7
  6
CONTINUOUS
 70
0
 71
3
 72
11
 73
7
 74
0
 42
0.0000001
 43
0.0000001
 44
0.0000000001
 40
0.0
 40
0.0
 40
0.0
 40
0.0
 40
0.2898315766
 40
0.5490753284
 40
0.7822483841
 40
1.0
 40
1.0
 40
1.0
 40
1.0
 10
2869.3496938203
 20
1631.9641521056
 30
0.0
 10
2863.8065548052
 20
1635.1653229919
 30
0.0
 10
2852.7856508177
 20
1640.4139287235
 30
0.0
 10
2835.8418730381
 20
1644.5013389864
 30
0.0
 10
2819.9473838366
 20
1644.1047830257
 30
0.0
 10
2810.3768274854
 20
1640.6285322803
 30
0.0
 10
2806.2122460031
 20
1638.223478306
 30
0.0
  0
SPLINE
  5
593
100
AcDbEntity
  8
0
100
AcDbSpline
 62
7
  6
CONTINUOUS
 70
0
 71
3
 72
16
 73
12
 74
0
 42
0.0000001
 43
0.0000001
 44
0.0000000001
 40
0.0
 40
0.0
 40
0.0
 40
0.0
 40
0.1287472712
 40
0.2704093758
 40
0.4176335335
 40
0.5620435867
 40
0.6957700761
 40
0.8130811722
 40
0.9124811608
 40
0.9571258239
 40
1.0
 40
1.0
 40
1.0
 40
1.0
 10
2869.3496938203
 20
1621.3510866513
 30
0.0
 10
2877.7316352663
 20
1616.5105032102
 30
0.0
 10
2894.0024586997
 20
1603.9877904045
 30
0.0
 10
2914.8296876292
 20
1580.294612373
 30
0.0
 10
2931.9724256822
 20
1552.4107501581
 30
0.0
 10
2944.0203342654
 20
1522.6192411833
 30
0.0
 10
2949.987694968
 20
1493.2859127854
 30
0.0
 10
2949.4091594157
 20
1466.6882141983
 30
0.0
 10
2942.8597245531
 20
1447.6064960918
 30
0.0
 10
2934.068192802
 20
1436.4868717633
 30
0.0
 10
2928.7771326767
 20
1432.4359948417
 30
0.0
 10
2925.985859882
 20
1430.824029328
 30
0.0
  0
SPLINE
  5
594
100
AcDbEntity
  8
0
100
AcDbSpline
 62
7
  6
CONTINUOUS
 70
0
 71
3
 72
11
 73
7
 74
0
 42
0.0000001
 43
0.0000001
 44
0.0000000001
 40
0.0
 40
0.0
 40
0.0
 40
0.0
 40
0.2575432073
 40
0.5398926169
 40
0.7986126154
 40
1.0
 40
1.0
 40
1.0
 40
1.0
 10
2898.3789766547
 20
1706.4586962827
 30
0.0
 10
2898.3789766547
 20
1709.7456364863
 30
0.0
 10
2896.7683316438
 20
1716.6306898139
 30
0.0
 10
2891.6122668262
 20
1725.5653544512
 30
0.0
 10
2884.7294876219
 20
1732.2320475237
 30
0.0
 10
2878.8357006944
 20
1734.4191695132
 30
0.0
 10
2876.2706464041
 20
1734.2559552736
 30
0.0
  0
SPLINE
  5
595
100
AcDbEntity
  8
6_ALL_SURFS
100
AcDbSpline
 62
7
  6
CONTINUOUS
 70
0
 71
3
 72
9
 73
5
 74
0
 42
0.0000001
 43
0.0000001
 44
0.0000000001
 40
0.0
 40
0.0
 40
0.0
 40
0.0
 40
0.5333036647
 40
1.0
 40
1.0
 40
1.0
 40
1.0
 10
2770.1644703745
 20
1447.6513399375
 30
0.0
 10
2767.6942525558
 20
1449.8030496128
 30
0.0
 10
2763.5467510427
 20
1454.5475509206
 30
0.0
 10
2761.8369829482
 20
1460.7428481438
 30
0.0
 10
2761.8377254677
 20
1463.609643633
 30
0.0
  0
SPLINE
  5
596
100
AcDbEntity
  8
0
100
AcDbSpline
 62
7
  6
CONTINUOUS
 70
0
 71
3
 72
9
 73
5
 74
0
 42
0.0000001
 43
0.0000001
 44
0.0000000001
 40
0.0
 40
0.0
 40
0.0
 40
0.0
 40
0.5332995456
 40
1.0
 40
1.0
 40
1.0
 40
1.0
 10
2770.1644703745
 20
1816.2512670639
 30
0.0
 10
2767.6947709781
 20
1818.402525162
 30
0.0
 10
2763.5478857118
 20
1823.1458775132
 30
0.0
 10
2761.8378655532
 20
1829.3394574959
 30
0.0
 10
2761.8376126448
 20
1832.205698853
 30
0.0
  0
SPLINE
  5
597
100
AcDbEntity
  8
6_ALL_SURFS
100
AcDbSpline
 62
7
  6
CONTINUOUS
 70
0
 71
3
 72
8
 73
4
 74
0
 42
0.0000001
 43
0.0000001
 44
0.0000000001
 40
0.0
 40
0.0
 40
0.0
 40
0.0
 40
1.0
 40
1.0
 40
1.0
 40
1.0
 10
2944.0953950749
 20
1925.2795257615
 30
0.0
 10
2943.6672466608
 20
1925.2662489464
 30
0.0
 10
2943.2380076433
 20
1925.1752267681
 30
0.0
 10
2942.8345062249
 20
1925.031442403
 30
0.0
  0
SPLINE
  5
598
100
AcDbEntity
  8
0
100
AcDbSpline
 62
7
  6
CONTINUOUS
 70
0
 71
3
 72
11
 73
7
 74
0
 42
0.0000001
 43
0.0000001
 44
0.0000000001
 40
0.0
 40
0.0
 40
0.0
 40
0.0
 40
0.2276056803
 40
0.4537048437
 40
0.7062338866
 40
1.0
 40
1.0
 40
1.0
 40
1.0
 10
2876.2706464041
 20
1734.2559552736
 30
0.0
 10
2875.1754638286
 20
1734.1862688767
 30
0.0
 10
2872.9728235692
 20
1733.6089501106
 30
0.0
 10
2870.3832145885
 20
1731.216526886
 30
0.0
 10
2868.8812188794
 20
1727.7221339043
 30
0.0
 10
2868.6046822332
 20
1725.0697837985
 30
0.0
 10
2868.6046822332
 20
1723.6533948466
 30
0.0
  0
SPLINE
  5
599
100
AcDbEntity
  8
0
100
AcDbSpline
 62
7
  6
CONTINUOUS
 70
0
 71
3
 72
11
 73
7
 74
0
 42
0.0000001
 43
0.0000001
 44
0.0000000001
 40
0.0
 40
0.0
 40
0.0
 40
0.0
 40
0.2898315766
 40
0.5490753284
 40
0.7822483841
 40
1.0
 40
1.0
 40
1.0
 40
1.0
 10
2869.3496938203
 20
1425.8257653959
 30
0.0
 10
2874.8928328353
 20
1422.6245945097
 30
0.0
 10
2885.9137368228
 20
1417.3759887781
 30
0.0
 10
2902.8575146024
 20
1413.2885785152
 30
0.0
 10
2918.7520038039
 20
1413.6851344759
 30
0.0
 10
2928.3225601551
 20
1417.1613852213
 30
0.0
 10
2932.4871416374
 20
1419.5664391956
 30
0.0
  0
SPLINE
  5
59A
100
AcDbEntity
  8
0
100
AcDbSpline
 62
7
  6
CONTINUOUS
 70
0
 71
3
 72
16
 73
12
 74
0
 42
0.0000001
 43
0.0000001
 44
0.0000000001
 40
0.0
 40
0.0
 40
0.0
 40
0.0
 40
0.1287472712
 40
0.2704093758
 40
0.4176335335
 40
0.5620435867
 40
0.6957700761
 40
0.8130811722
 40
0.9124811608
 40
0.9571258239
 40
1.0
 40
1.0
 40
1.0
 40
1.0
 10
2869.3496938203
 20
1436.4388308503
 30
0.0
 10
2860.9677523742
 20
1441.2794142913
 30
0.0
 10
2844.6969289408
 20
1453.802127097
 30
0.0
 10
2823.8697000113
 20
1477.4953051286
 30
0.0
 10
2806.7269619584
 20
1505.3791673435
 30
0.0
 10
2794.6790533751
 20
1535.1706763182
 30
0.0
 10
2788.7116926726
 20
1564.5040047161
 30
0.0
 10
2789.2902282248
 20
1591.1017033032
 30
0.0
 10
2795.8396630874
 20
1610.1834214097
 30
0.0
 10
2804.6311948386
 20
1621.3030457383
 30
0.0
 10
2809.9222549638
 20
1625.3539226599
 30
0.0
 10
2812.7135277585
 20
1626.9658881736
 30
0.0
  0
SPLINE
  5
59B
100
AcDbEntity
  8
6_ALL_SURFS
100
AcDbSpline
 62
7
  6
CONTINUOUS
 70
0
 71
3
 72
9
 73
5
 74
0
 42
0.0000001
 43
0.0000001
 44
0.0000000001
 40
0.0
 40
0.0
 40
0.0
 40
0.0
 40
0.2377848533
 40
1.0
 40
1.0
 40
1.0
 40
1.0
 10
2937.0416707345
 20
1355.7696558012
 30
0.0
 10
2924.8276754231
 20
1364.9733246341
 30
0.0
 10
2872.174549483
 20
1401.9646982792
 30
0.0
 10
2814.9928848877
 20
1432.3008136038
 30
0.0
 10
2770.1644703745
 20
1452.1414830143
 30
0.0
  0
SPLINE
  5
59C
100
AcDbEntity
  8
0
100
AcDbSpline
 62
7
  6
CONTINUOUS
 70
0
 71
3
 72
11
 73
7
 74
0
 42
0.0000001
 43
0.0000001
 44
0.0000000001
 40
0.0
 40
0.0
 40
0.0
 40
0.0
 40
0.2177516159
 40
0.4509246716
 40
0.7101684234
 40
1.0
 40
1.0
 40
1.0
 40
1.0
 10
2925.985859882
 20
1430.824029328
 30
0.0
 10
2922.2501065919
 20
1428.6666244758
 30
0.0
 10
2913.665033271
 20
1425.5483243022
 30
0.0
 10
2899.4072043437
 20
1425.1926018266
 30
0.0
 10
2884.2081323948
 20
1428.8591302406
 30
0.0
 10
2874.3220541644
 20
1433.567285481
 30
0.0
 10
2869.3496938203
 20
1436.4388308503
 30
0.0
  0
SPLINE
  5
59D
100
AcDbEntity
  8
0
100
AcDbSpline
 62
7
  6
CONTINUOUS
 70
0
 71
3
 72
9
 73
5
 74
0
 42
0.0000001
 43
0.0000001
 44
0.0000000001
 40
0.0
 40
0.0
 40
0.0
 40
0.0
 40
0.4897242699
 40
1.0
 40
1.0
 40
1.0
 40
1.0
 10
2811.959667061
 20
1638.0781291843
 30
0.0
 10
2815.0229620667
 20
1639.8464233074
 30
0.0
 10
2821.7784959633
 20
1642.6468924083
 30
0.0
 10
2829.0012917585
 20
1643.6825619619
 30
0.0
 10
2832.6843492455
 20
1643.8159323085
 30
0.0
  0
SPLINE
  5
59E
100
AcDbEntity
  8
0
100
AcDbSpline
 62
7
  6
CONTINUOUS
 70
0
 71
3
 72
9
 73
5
 74
0
 42
0.0000001
 43
0.0000001
 44
0.0000000001
 40
0.0
 40
0.0
 40
0.0
 40
0.0
 40
0.4960020244
 40
1.0
 40
1.0
 40
1.0
 40
1.0
 10
2937.0416707345
 20
1724.3695829276
 30
0.0
 10
2945.0907612492
 20
1721.2877821177
 30
0.0
 10
2962.5704791561
 20
1718.3106210069
 30
0.0
 10
2980.1392612824
 20
1720.4339614958
 30
0.0
 10
2988.4971864502
 20
1723.0502232866
 30
0.0
  0
SPLINE
  5
59F
100
AcDbEntity
  8
0
100
AcDbSpline
 62
7
  6
CONTINUOUS
 70
0
 71
3
 72
17
 73
13
 74
0
 42
0.0000001
 43
0.0000001
 44
0.0000000001
 40
0.0
 40
0.0
 40
0.0
 40
0.0
 40
0.0428555417
 40
0.087480801
 40
0.1353108525
 40
0.187272216
 40
0.3045323253
 40
0.4382006934
 40
0.5825479819
 40
0.7297081518
 40
0.871308686
 40
1.0
 40
1.0
 40
1.0
 40
1.0
 10
2806.2122460031
 20
1638.223478306
 30
0.0
 10
2803.1005622033
 20
1636.4264748084
 30
0.0
 10
2797.2020605837
 20
1631.9106407222
 30
0.0
 10
2790.1045997848
 20
1622.9330075521
 30
0.0
 10
2784.8002684206
 20
1611.953853068
 30
0.0
 10
2780.0393820468
 20
1594.3007006917
 30
0.0
 10
2779.444572791
 20
1568.563308953
 30
0.0
 10
2786.1108680568
 20
1535.8997623729
 30
0.0
 10
2799.5375523085
 20
1502.6773213849
 30
0.0
 10
2818.649280675
 20
1471.5957663858
 30
0.0
 10
2841.8669695622
 20
1445.1820365271
 30
0.0
 10
2860.0055869102
 20
1431.2220007993
 30
0.0
 10
2869.3496938203
 20
1425.8257653959
 30
0.0
  0
SPLINE
  5
5A0
100
AcDbEntity
  8
0
100
AcDbSpline
 62
7
  6
CONTINUOUS
 70
0
 71
3
 72
18
 73
14
 74
0
 42
0.0000001
 43
0.0000001
 44
0.0000000001
 40
0.0
 40
0.0
 40
0.0
 40
0.0
 40
0.1139865624
 40
0.162656718
 40
0.2081125143
 40
0.2535635043
 40
0.302228654
 40
0.3563355118
 40
0.4168207363
 40
0.5551504671
 40
0.7083953746
 40
0.8616457769
 40
1.0
 40
1.0
 40
1.0
 40
1.0
 10
2890.5628972559
 20
1512.5719769907
 30
0.0
 10
2893.4574814498
 20
1510.9003503863
 30
0.0
 10
2898.0744695971
 20
1509.0528238084
 30
0.0
 10
2904.2568357249
 20
1509.2072373449
 30
0.0
 10
2908.1816822439
 20
1510.6290245173
 30
0.0
 10
2911.3756364565
 20
1513.3147256932
 30
0.0
 10
2913.6769679139
 20
1517.0752708034
 30
0.0
 10
2915.0440651592
 20
1521.7084969516
 30
0.0
 10
2915.6315391766
 20
1529.1428530123
 30
0.0
 10
2913.7881510474
 20
1539.4622312202
 30
0.0
 10
2908.4862658365
 20
1551.4891467008
 30
0.0
 10
2900.7252246672
 20
1562.0935171915
 30
0.0
 10
2894.0762758402
 20
1567.6902712445
 30
0.0
 10
2890.5628972559
 20
1569.7192525142
 30
0.0
  0
SPLINE
  5
5A1
100
AcDbEntity
  8
0
100
AcDbSpline
 62
7
  6
CONTINUOUS
 70
0
 71
3
 72
11
 73
7
 74
0
 42
0.0000001
 43
0.0000001
 44
0.0000000001
 40
0.0
 40
0.0
 40
0.0
 40
0.0
 40
0.2898186873
 40
0.5490662201
 40
0.7822503071
 40
1.0
 40
1.0
 40
1.0
 40
1.0
 10
2874.2994412886
 20
1453.9923309567
 30
0.0
 10
2878.4795695903
 20
1451.5783007504
 30
0.0
 10
2886.7905501811
 20
1447.6198760966
 30
0.0
 10
2899.5679745459
 20
1444.5354425065
 30
0.0
 10
2911.5547710462
 20
1444.8304609601
 30
0.0
 10
2918.7737199752
 20
1447.4480288351
 30
0.0
 10
2921.9155737208
 20
1449.2596934889
 30
0.0
  0
SPLINE
  5
5A2
100
AcDbEntity
  8
0
100
AcDbSpline
 62
7
  6
CONTINUOUS
 70
0
 71
3
 72
9
 73
5
 74
0
 42
0.0000001
 43
0.0000001
 44
0.0000000001
 40
0.0
 40
0.0
 40
0.0
 40
0.0
 40
0.2739610991
 40
1.0
 40
1.0
 40
1.0
 40
1.0
 10
2770.1644703745
 20
1452.1414830143
 30
0.0
 10
2769.190833767
 20
1452.9895796043
 30
0.0
 10
2765.817538756
 20
1456.2684949924
 30
0.0
 10
2763.2501684717
 20
1460.5045576142
 30
0.0
 10
2762.390196847
 20
1463.8166518812
 30
0.0
  0
SPLINE
  5
5A3
100
AcDbEntity
  8
0
100
AcDbSpline
 62
7
  6
CONTINUOUS
 70
0
 71
3
 72
8
 73
4
 74
0
 42
0.0000001
 43
0.0000001
 44
0.0000000001
 40
0.0
 40
0.0
 40
0.0
 40
0.0
 40
1.0
 40
1.0
 40
1.0
 40
1.0
 10
2762.390196847
 20
1463.8166518812
 30
0.0
 10
2762.0287426147
 20
1465.2087565228
 30
0.0
 10
2761.8377395529
 20
1466.6576504051
 30
0.0
 10
2761.8376126448
 20
1468.0959148034
 30
0.0
  0
SPLINE
  5
5A4
100
AcDbEntity
  8
0
100
AcDbSpline
 62
7
  6
CONTINUOUS
 70
0
 71
3
 72
9
 73
5
 74
0
 42
0.0000001
 43
0.0000001
 44
0.0000000001
 40
0.0
 40
0.0
 40
0.0
 40
0.0
 40
0.4879326771
 40
1.0
 40
1.0
 40
1.0
 40
1.0
 10
2935.2250019538
 20
1424.6120507179
 30
0.0
 10
2938.570537577
 20
1426.5432688898
 30
0.0
 10
2944.8852360437
 20
1431.5119572092
 30
0.0
 10
2949.6194465121
 20
1437.9736988225
 30
0.0
 10
2951.634947086
 20
1441.4911801644
 30
0.0
  0
SPLINE
  5
5A5
100
AcDbEntity
  8
6_ALL_SURFS
100
AcDbSpline
 62
7
  6
CONTINUOUS
 70
0
 71
3
 72
9
 73
5
 74
0
 42
0.0000001
 43
0.0000001
 44
0.0000000001
 40
0.0
 40
0.0
 40
0.0
 40
0.0
 40
0.2738397535
 40
1.0
 40
1.0
 40
1.0
 40
1.0
 10
2770.1644703745
 20
1820.7414101408
 30
0.0
 10
2769.1947164559
 20
1821.586124673
 30
0.0
 10
2765.8329471593
 20
1824.8530535347
 30
0.0
 10
2763.26948142
 20
1829.0683183087
 30
0.0
 10
2762.4032378053
 20
1832.3668211334
 30
0.0
  0
SPLINE
  5
5A6
100
AcDbEntity
  8
6_ALL_SURFS
100
AcDbSpline
 62
7
  6
CONTINUOUS
 70
0
 71
3
 72
8
 73
4
 74
0
 42
0.0000001
 43
0.0000001
 44
0.0000000001
 40
0.0
 40
0.0
 40
0.0
 40
0.0
 40
1.0
 40
1.0
 40
1.0
 40
1.0
 10
2762.4032378053
 20
1832.3668211334
 30
0.0
 10
2762.0332687701
 20
1833.7755979337
 30
0.0
 10
2761.8373482238
 20
1835.2431667777
 30
0.0
 10
2761.8377254651
 20
1836.6997137279
 30
0.0
  0
SPLINE
  5
5A7
100
AcDbEntity
  8
0
100
AcDbSpline
 62
9
  6
CONTINUOUS
 70
0
 71
3
 72
10
 73
6
 74
0
 42
0.0000001
 43
0.0000001
 44
0.0000000001
 40
0.0
 40
0.0
 40
0.0
 40
0.0
 40
0.2293143579
 40
0.4681432315
 40
1.0
 40
1.0
 40
1.0
 40
1.0
 10
2822.6835099727
 20
1621.17549238
 30
0.0
 10
2825.2322565481
 20
1622.6452197523
 30
0.0
 10
2830.8528956645
 20
1624.9759670942
 30
0.0
 10
2843.6484873658
 20
1626.8426632756
 30
0.0
 10
2853.6688225563
 20
1624.8795026084
 30
0.0
 10
2860.1119548379
 20
1622.632169889
 30
0.0
  0
SPLINE
  5
5A8
100
AcDbEntity
  8
0
100
AcDbSpline
 62
9
  6
CONTINUOUS
 70
0
 71
3
 72
9
 73
5
 74
0
 42
0.0000001
 43
0.0000001
 44
0.0000000001
 40
0.0
 40
0.0
 40
0.0
 40
0.0
 40
0.2569291818
 40
1.0
 40
1.0
 40
1.0
 40
1.0
 10
2886.5555906855
 20
1440.7514991179
 30
0.0
 10
2887.3090394215
 20
1440.4629835049
 30
0.0
 10
2890.2593434937
 20
1439.3875095564
 30
0.0
 10
2893.2819837929
 20
1438.5069225373
 30
0.0
 10
2895.5560673354
 20
1437.9842984241
 30
0.0
  0
SPLINE
  5
5A9
100
AcDbEntity
  8
0
100
AcDbSpline
 62
9
  6
CONTINUOUS
 70
0
 71
3
 72
9
 73
5
 74
0
 42
0.0000001
 43
0.0000001
 44
0.0000000001
 40
0.0
 40
0.0
 40
0.0
 40
0.0
 40
0.523809104
 40
1.0
 40
1.0
 40
1.0
 40
1.0
 10
2896.7617970691
 20
1437.7202344591
 30
0.0
 10
2901.9469422387
 20
1436.6410064891
 30
0.0
 10
2912.2360782808
 20
1435.8837082926
 30
0.0
 10
2922.1767270151
 20
1439.0327920888
 30
0.0
 10
2926.3527156068
 20
1441.4293309478
 30
0.0
  0
SPLINE
  5
5AA
100
AcDbEntity
  8
0
100
AcDbSpline
 62
7
  6
CONTINUOUS
 70
0
 71
3
 72
17
 73
13
 74
0
 42
0.0000001
 43
0.0000001
 44
0.0000000001
 40
0.0
 40
0.0
 40
0.0
 40
0.0
 40
0.0428555417
 40
0.087480801
 40
0.1353108525
 40
0.187272216
 40
0.3045323253
 40
0.4382006934
 40
0.5825479819
 40
0.7297081518
 40
0.871308686
 40
1.0
 40
1.0
 40
1.0
 40
1.0
 10
2930.9868458477
 20
1422.1643446108
 30
0.0
 10
2934.0245886463
 20
1423.9186470351
 30
0.0
 10
2939.7829278512
 20
1428.3271741727
 30
0.0
 10
2946.7117361163
 20
1437.0914774457
 30
0.0
 10
2951.8900239629
 20
1447.8097411302
 30
0.0
 10
2956.5377803634
 20
1465.043412658
 30
0.0
 10
2957.1184555379
 20
1490.1692228108
 30
0.0
 10
2950.6105672883
 20
1522.0566059078
 30
0.0
 10
2937.5029329595
 20
1554.4896027535
 30
0.0
 10
2918.8453446729
 20
1584.8325861487
 30
0.0
 10
2896.1793632445
 20
1610.6186630206
 30
0.0
 10
2878.4717625463
 20
1624.2469751272
 30
0.0
 10
2869.3496938203
 20
1629.5149831546
 30
0.0
  0
SPLINE
  5
5AB
100
AcDbEntity
  8
0
100
AcDbSpline
 62
9
  6
CONTINUOUS
 70
0
 71
3
 72
9
 73
5
 74
0
 42
0.0000001
 43
0.0000001
 44
0.0000000001
 40
0.0
 40
0.0
 40
0.0
 40
0.0
 40
0.5231572363
 40
1.0
 40
1.0
 40
1.0
 40
1.0
 10
2897.6846702205
 20
1429.8223657922
 30
0.0
 10
2902.5318495107
 20
1428.731805323
 30
0.0
 10
2912.0971631881
 20
1427.6808786669
 30
0.0
 10
2921.6071574936
 20
1429.564444441
 30
0.0
 10
2925.8220019728
 20
1431.2204770404
 30
0.0
  0
SPLINE
  5
5AC
100
AcDbEntity
  8
7_ALL_ROUNDS
100
AcDbSpline
 62
7
  6
CONTINUOUS
 70
0
 71
3
 72
9
 73
5
 74
0
 42
0.0000001
 43
0.0000001
 44
0.0000000001
 40
0.0
 40
0.0
 40
0.0
 40
0.0
 40
0.2249397007
 40
1.0
 40
1.0
 40
1.0
 40
1.0
 10
3131.5024200398
 20
1817.0516948207
 30
0.0
 10
3131.4330017492
 20
1817.0274209805
 30
0.0
 10
3131.1303279564
 20
1816.9024710697
 30
0.0
 10
3130.8536534176
 20
1816.7209440056
 30
0.0
 10
3130.6532969093
 20
1816.5658161571
 30
0.0
  0
SPLINE
  5
5AD
100
AcDbEntity
  8
6_ALL_SURFS
100
AcDbSpline
 62
9
  6
CONTINUOUS
 70
0
 71
3
 72
9
 73
5
 74
0
 42
0.0000001
 43
0.0000001
 44
0.0000000001
 40
0.0
 40
0.0
 40
0.0
 40
0.0
 40
0.2352485097
 40
1.0
 40
1.0
 40
1.0
 40
1.0
 10
2885.7739811957
 20
1804.4958580769
 30
0.0
 10
2885.5801155931
 20
1805.2333949272
 30
0.0
 10
2885.0528301695
 20
1808.4461118857
 30
0.0
 10
2885.6573878137
 20
1811.7852612958
 30
0.0
 10
2886.5465443817
 20
1814.0993656826
 30
0.0
  0
SPLINE
  5
5AE
100
AcDbEntity
  8
0
100
AcDbSpline
 62
7
  6
CONTINUOUS
 70
0
 71
3
 72
9
 73
5
 74
0
 42
0.0000001
 43
0.0000001
 44
0.0000000001
 40
0.0
 40
0.0
 40
0.0
 40
0.0
 40
0.5138002392
 40
1.0
 40
1.0
 40
1.0
 40
1.0
 10
2910.4195315716
 20
1416.1872226159
 30
0.0
 10
2914.253657936
 20
1415.9775578256
 30
0.0
 10
2921.7862171123
 20
1416.3025708616
 30
0.0
 10
2929.0532235506
 20
1418.3886961896
 30
0.0
 10
2932.3875700847
 20
1419.832672496
 30
0.0
  0
SPLINE
  5
5AF
100
AcDbEntity
  8
0
100
AcDbSpline
 62
7
  6
CONTINUOUS
 70
0
 71
3
 72
9
 73
5
 74
0
 42
0.0000001
 43
0.0000001
 44
0.0000000001
 40
0.0
 40
0.0
 40
0.0
 40
0.0
 40
0.5156264907
 40
1.0
 40
1.0
 40
1.0
 40
1.0
 10
2791.3588583675
 20
1618.9493402615
 30
0.0
 10
2793.1321911492
 20
1622.7713509845
 30
0.0
 10
2797.3560178788
 20
1629.8625700713
 30
0.0
 10
2803.2541319348
 20
1635.6787864098
 30
0.0
 10
2806.4343828983
 20
1638.0349874364
 30
0.0
  0
SPLINE
  5
5B0
100
AcDbEntity
  8
0
100
AcDbSpline
 62
7
  6
CONTINUOUS
 70
0
 71
3
 72
18
 73
14
 74
0
 42
0.0000001
 43
0.0000001
 44
0.0000000001
 40
0.0
 40
0.0
 40
0.0
 40
0.0
 40
0.1383542231
 40
0.2916046254
 40
0.4448495329
 40
0.5831792637
 40
0.6436644882
 40
0.697771346
 40
0.7464364957
 40
0.7918874857
 40
0.837343282
 40
0.8860134376
 40
1.0
 40
1.0
 40
1.0
 40
1.0
 10
2890.5628972559
 20
1512.5719769907
 30
0.0
 10
2887.0495186715
 20
1514.6009582604
 30
0.0
 10
2880.4005698446
 20
1520.1977123134
 30
0.0
 10
2872.6395286752
 20
1530.8020828042
 30
0.0
 10
2867.3376434643
 20
1542.8289982847
 30
0.0
 10
2865.4942553352
 20
1553.1483764926
 30
0.0
 10
2866.0817293525
 20
1560.5827325533
 30
0.0
 10
2867.4488265978
 20
1565.2159587015
 30
0.0
 10
2869.7501580552
 20
1568.9765038117
 30
0.0
 10
2872.9441122678
 20
1571.6622049876
 30
0.0
 10
2876.8689587868
 20
1573.08399216
 30
0.0
 10
2883.0513249146
 20
1573.2384056966
 30
0.0
 10
2887.6683130619
 20
1571.3908791186
 30
0.0
 10
2890.5628972559
 20
1569.7192525142
 30
0.0
  0
SPLINE
  5
5B1
100
AcDbEntity
  8
0
100
AcDbSpline
 62
7
  6
CONTINUOUS
 70
0
 71
3
 72
16
 73
12
 74
0
 42
0.0000001
 43
0.0000001
 44
0.0000000001
 40
0.0
 40
0.0
 40
0.0
 40
0.0
 40
0.1287573419
 40
0.2704271998
 40
0.4176594261
 40
0.5620732139
 40
0.695796153
 40
0.81309754
 40
0.9124851659
 40
0.9571259614
 40
1.0
 40
1.0
 40
1.0
 40
1.0
 10
2874.2994412886
 20
1453.9923309567
 30
0.0
 10
2867.2484141821
 20
1458.0643094206
 30
0.0
 10
2853.5614887776
 20
1468.5988399429
 30
0.0
 10
2836.0425802618
 20
1488.5305164304
 30
0.0
 10
2821.6236530974
 20
1511.9869731682
 30
0.0
 10
2811.4918108678
 20
1537.0476900476
 30
0.0
 10
2806.4761105107
 20
1561.7216536478
 30
0.0
 10
2806.9674058426
 20
1584.0927800162
 30
0.0
 10
2812.4821976099
 20
1600.1401454837
 30
0.0
 10
2819.8819105321
 20
1609.4885028407
 30
0.0
 10
2824.3345417108
 20
1612.8928440135
 30
0.0
 10
2826.6833088563
 20
1614.2471968134
 30
0.0
  0
SPLINE
  5
5B2
100
AcDbEntity
  8
0
100
AcDbSpline
 62
9
  6
CONTINUOUS
 70
0
 71
3
 72
9
 73
5
 74
0
 42
0.0000001
 43
0.0000001
 44
0.0000000001
 40
0.0
 40
0.0
 40
0.0
 40
0.0
 40
0.5266555867
 40
1.0
 40
1.0
 40
1.0
 40
1.0
 10
2803.372265736
 20
1595.9012399948
 30
0.0
 10
2804.9516003759
 20
1601.4292601499
 30
0.0
 10
2809.4207353968
 20
1611.6537600955
 30
0.0
 10
2817.6453528363
 20
1619.411080046
 30
0.0
 10
2822.11585183
 20
1622.0023983536
 30
0.0
  0
SPLINE
  5
5B3
100
AcDbEntity
  8
0
100
AcDbSpline
 62
9
  6
CONTINUOUS
 70
0
 71
3
 72
9
 73
5
 74
0
 42
0.0000001
 43
0.0000001
 44
0.0000000001
 40
0.0
 40
0.0
 40
0.0
 40
0.0
 40
0.2552656316
 40
1.0
 40
1.0
 40
1.0
 40
1.0
 10
2795.920011389
 20
1595.9688950659
 30
0.0
 10
2796.0503382109
 20
1596.6122534543
 30
0.0
 10
2796.5933467347
 20
1599.1258569872
 30
0.0
 10
2797.2692019637
 20
1601.61124575
 30
0.0
 10
2797.853208213
 20
1603.4351431222
 30
0.0
  0
SPLINE
  5
5B4
100
AcDbEntity
  8
0
100
AcDbSpline
 62
9
  6
CONTINUOUS
 70
0
 71
3
 72
9
 73
5
 74
0
 42
0.0000001
 43
0.0000001
 44
0.0000000001
 40
0.0
 40
0.0
 40
0.0
 40
0.0
 40
0.520991631
 40
1.0
 40
1.0
 40
1.0
 40
1.0
 10
2798.3747722665
 20
1604.994641316
 30
0.0
 10
2799.8878719606
 20
1609.3303275598
 30
0.0
 10
2803.7253907625
 20
1617.384424136
 30
0.0
 10
2809.7338666765
 20
1624.052785587
 30
0.0
 10
2813.040592039
 20
1626.6779565312
 30
0.0
  0
SPLINE
  5
5B5
100
AcDbEntity
  8
6_ALL_SURFS
100
AcDbSpline
 62
9
  6
CONTINUOUS
 70
0
 71
3
 72
9
 73
5
 74
0
 42
0.0000001
 43
0.0000001
 44
0.0000000001
 40
0.0
 40
0.0
 40
0.0
 40
0.0
 40
0.5196672646
 40
1.0
 40
1.0
 40
1.0
 40
1.0
 10
2890.306143405
 20
1814.1940508664
 30
0.0
 10
2889.7194382271
 20
1813.8551297417
 30
0.0
 10
2888.4235738044
 20
1813.4041854634
 30
0.0
 10
2887.0806170419
 20
1813.7722712947
 30
0.0
 10
2886.5465459775
 20
1814.0993647056
 30
0.0
  0
SPLINE
  5
5B6
100
AcDbEntity
  8
6_ALL_SURFS
100
AcDbSpline
 62
9
  6
CONTINUOUS
 70
0
 71
3
 72
9
 73
5
 74
0
 42
0.0000001
 43
0.0000001
 44
0.0000000001
 40
0.0
 40
0.0
 40
0.0
 40
0.0
 40
0.2573166625
 40
1.0
 40
1.0
 40
1.0
 40
1.0
 10
2892.2843955835
 20
1807.9423890481
 30
0.0
 10
2892.0343914954
 20
1808.4476456062
 30
0.0
 10
2891.1363270332
 20
1810.4459446368
 30
0.0
 10
2890.5333566128
 20
1812.5829347137
 30
0.0
 10
2890.306143405
 20
1814.1940508664
 30
0.0
  0
SPLINE
  5
5B7
100
AcDbEntity
  8
6_ALL_SURFS
100
AcDbSpline
 62
7
  6
CONTINUOUS
 70
0
 71
3
 72
9
 73
5
 74
0
 42
0.0000001
 43
0.0000001
 44
0.0000000001
 40
0.0
 40
0.0
 40
0.0
 40
0.0
 40
0.2377848533
 40
1.0
 40
1.0
 40
1.0
 40
1.0
 10
2937.0416707345
 20
1724.3695829276
 30
0.0
 10
2924.8276754231
 20
1733.5732517606
 30
0.0
 10
2872.174549483
 20
1770.5646254057
 30
0.0
 10
2814.9928848877
 20
1800.9007407303
 30
0.0
 10
2770.1644703745
 20
1820.7414101408
 30
0.0
  0
SPLINE
  5
5B8
100
AcDbEntity
  8
0
100
AcDbSpline
 62
9
  6
CONTINUOUS
 70
0
 71
3
 72
9
 73
5
 74
0
 42
0.0000001
 43
0.0000001
 44
0.0000000001
 40
0.0
 40
0.0
 40
0.0
 40
0.0
 40
0.4796266321
 40
1.0
 40
1.0
 40
1.0
 40
1.0
 10
2925.9182546067
 20
1442.3330600061
 30
0.0
 10
2929.6929819372
 20
1444.5102313876
 30
0.0
 10
2936.7165825513
 20
1450.6460052239
 30
0.0
 10
2941.1443401342
 20
1458.7687729897
 30
0.0
 10
2942.8557624644
 20
1463.1759362288
 30
0.0
  0
SPLINE
  5
5B9
100
AcDbEntity
  8
0
100
AcDbSpline
 62
9
  6
CONTINUOUS
 70
0
 71
3
 72
9
 73
5
 74
0
 42
0.0000001
 43
0.0000001
 44
0.0000000001
 40
0.0
 40
0.0
 40
0.0
 40
0.0
 40
0.2433594688
 40
1.0
 40
1.0
 40
1.0
 40
1.0
 10
2943.0475437312
 20
1463.6771238995
 30
0.0
 10
2943.3068095647
 20
1464.3647831059
 30
0.0
 10
2944.3153034469
 20
1467.2117675331
 30
0.0
 10
2945.1009836558
 20
1470.1362348097
 30
0.0
 10
2945.5826433972
 20
1472.3698381363
 30
0.0
  0
SPLINE
  5
5BA
100
AcDbEntity
  8
0
100
AcDbSpline
 62
7
  6
CONTINUOUS
 70
0
 71
3
 72
9
 73
5
 74
0
 42
0.0000001
 43
0.0000001
 44
0.0000000001
 40
0.0
 40
0.0
 40
0.0
 40
0.0
 40
0.487773306
 40
1.0
 40
1.0
 40
1.0
 40
1.0
 10
2937.0416707345
 20
1355.7696558012
 30
0.0
 10
2942.9788237903
 20
1353.496464431
 30
0.0
 10
2955.8675927939
 20
1350.6595148967
 30
0.0
 10
2969.0223924878
 20
1350.8047595084
 30
0.0
 10
2975.6429363856
 20
1351.6647643663
 30
0.0
  0
SPLINE
  5
5BB
100
AcDbEntity
  8
0
100
AcDbSpline
 62
7
  6
CONTINUOUS
 70
0
 71
3
 72
13
 73
9
 74
0
 42
0.0000001
 43
0.0000001
 44
0.0000000001
 40
0.0
 40
0.0
 40
0.0
 40
0.0
 40
0.2805212287
 40
0.577690735
 40
0.7083689511
 40
0.8185677422
 40
0.9112452143
 40
1.0
 40
1.0
 40
1.0
 40
1.0
 10
2868.6046822332
 20
1723.6533948466
 30
0.0
 10
2868.6046822332
 20
1719.4586068863
 30
0.0
 10
2871.1196197551
 20
1710.8682585868
 30
0.0
 10
2877.4199815856
 20
1702.0568196972
 30
0.0
 10
2883.9965412465
 20
1697.2909740736
 30
0.0
 10
2888.7918255621
 20
1695.5908743597
 30
0.0
 10
2893.3348969754
 20
1696.0160445616
 30
0.0
 10
2895.5550089645
 20
1697.8659210274
 30
0.0
 10
2896.3307168021
 20
1698.9428307971
 30
0.0
  0
SPLINE
  5
5BC
100
AcDbEntity
  8
0
100
AcDbSpline
 62
7
  6
CONTINUOUS
 70
0
 71
3
 72
11
 73
7
 74
0
 42
0.0000001
 43
0.0000001
 44
0.0000000001
 40
0.0
 40
0.0
 40
0.0
 40
0.0
 40
0.2898315766
 40
0.5490753284
 40
0.7822483841
 40
1.0
 40
1.0
 40
1.0
 40
1.0
 10
2869.3496938203
 20
1629.5149831546
 30
0.0
 10
2863.9382729601
 20
1632.6400866139
 30
0.0
 10
2853.1792518396
 20
1637.7639730014
 30
0.0
 10
2836.6380984824
 20
1641.7542566837
 30
0.0
 10
2821.1213001134
 20
1641.367123835
 30
0.0
 10
2811.7781629231
 20
1637.9734770677
 30
0.0
 10
2807.7125417928
 20
1635.6255728908
 30
0.0
  0
SPLINE
  5
5BD
100
AcDbEntity
  8
6_ALL_SURFS
100
AcDbSpline
 62
7
  6
CONTINUOUS
 70
0
 71
3
 72
11
 73
7
 74
0
 42
0.0000001
 43
0.0000001
 44
0.0000000001
 40
0.0
 40
0.0
 40
0.0
 40
0.0
 40
0.2422394418
 40
0.5
 40
0.7577605582
 40
1.0
 40
1.0
 40
1.0
 40
1.0
 10
1141.6470977634
 20
250.6451304842
 30
0.0
 10
1140.4678196801
 20
248.6945211729
 30
0.0
 10
1136.7428113123
 20
245.3874200659
 30
0.0
 10
1129.5453503989
 20
243.743256132
 30
0.0
 10
1122.3478894856
 20
245.3874200659
 30
0.0
 10
1118.6228811177
 20
248.6945211729
 30
0.0
 10
1117.4436030345
 20
250.6451304842
 30
0.0
  0
SPLINE
  5
5BE
100
AcDbEntity
  8
0
100
AcDbSpline
 62
7
  6
CONTINUOUS
 70
0
 71
3
 72
11
 73
7
 74
0
 42
0.0000001
 43
0.0000001
 44
0.0000000001
 40
0.0
 40
0.0
 40
0.0
 40
0.0
 40
0.2422394418
 40
0.5
 40
0.7577605582
 40
1.0
 40
1.0
 40
1.0
 40
1.0
 10
1332.4436030345
 20
250.6451304842
 30
0.0
 10
1333.6228811178
 20
248.6945211729
 30
0.0
 10
1337.3478894856
 20
245.3874200659
 30
0.0
 10
1344.5453503989
 20
243.743256132
 30
0.0
 10
1351.7428113123
 20
245.3874200659
 30
0.0
 10
1355.4678196801
 20
248.6945211729
 30
0.0
 10
1356.6470977634
 20
250.6451304842
 30
0.0
  0
SPLINE
  5
5BF
100
AcDbEntity
  8
0
100
AcDbSpline
 62
7
  6
CONTINUOUS
 70
0
 71
3
 72
9
 73
5
 74
0
 42
0.0000001
 43
0.0000001
 44
0.0000000001
 40
0.0
 40
0.0
 40
0.0
 40
0.0
 40
0.7450092849
 40
1.0
 40
1.0
 40
1.0
 40
1.0
 10
1330.8850963611
 20
256.1326635315
 30
0.0
 10
1330.8850963611
 20
254.7061458476
 30
0.0
 10
1331.3047264241
 20
252.7622354954
 30
0.0
 10
1332.1909995583
 20
251.0629544901
 30
0.0
 10
1332.4436030345
 20
250.6451304842
 30
0.0
  0
SPLINE
  5
5C0
100
AcDbEntity
  8
0
100
AcDbSpline
 62
7
  6
CONTINUOUS
 70
0
 71
3
 72
15
 73
11
 74
0
 42
0.0000001
 43
0.0000001
 44
0.0000000001
 40
0.0
 40
0.0
 40
0.0
 40
0.0
 40
0.1166176977
 40
0.2383005051
 40
0.3668365888
 40
0.5
 40
0.6331634112
 40
0.7616994949
 40
0.8833823023
 40
1.0
 40
1.0
 40
1.0
 40
1.0
 10
1358.2056044368
 20
256.1326635315
 30
0.0
 10
1358.2056044368
 20
257.6811359419
 30
0.0
 10
1357.4530764922
 20
260.8854551823
 30
0.0
 10
1354.344106482
 20
264.8078414031
 30
0.0
 10
1349.814832104
 20
267.3733770275
 30
0.0
 10
1344.5453503989
 20
268.2627082685
 30
0.0
 10
1339.2758686939
 20
267.3733770275
 30
0.0
 10
1334.7465943159
 20
264.8078414031
 30
0.0
 10
1331.6376243056
 20
260.8854551823
 30
0.0
 10
1330.8850963611
 20
257.6811359419
 30
0.0
 10
1330.8850963611
 20
256.1326635315
 30
0.0
  0
SPLINE
  5
5C1
100
AcDbEntity
  8
6_ALL_SURFS
100
AcDbSpline
 62
7
  6
CONTINUOUS
 70
0
 71
3
 72
9
 73
5
 74
0
 42
0.0000001
 43
0.0000001
 44
0.0000000001
 40
0.0
 40
0.0
 40
0.0
 40
0.0
 40
0.2549907151
 40
1.0
 40
1.0
 40
1.0
 40
1.0
 10
1116.2567095022
 20
252.6069340333
 30
0.0
 10
1115.9793316341
 20
253.0657366347
 30
0.0
 10
1115.0061361887
 20
254.931676683
 30
0.0
 10
1114.5453503989
 20
257.0662383977
 30
0.0
 10
1114.5453503989
 20
258.6326635315
 30
0.0
  0
SPLINE
  5
5C2
100
AcDbEntity
  8
6_ALL_SURFS
100
AcDbSpline
 62
7
  6
CONTINUOUS
 70
0
 71
3
 72
9
 73
5
 74
0
 42
0.0000001
 43
0.0000001
 44
0.0000000001
 40
0.0
 40
0.0
 40
0.0
 40
0.0
 40
0.2549907151
 40
1.0
 40
1.0
 40
1.0
 40
1.0
 10
1117.4436030345
 20
250.6451304842
 30
0.0
 10
1117.1909995583
 20
251.0629544901
 30
0.0
 10
1116.3047264241
 20
252.7622354954
 30
0.0
 10
1115.8850963611
 20
254.7061458476
 30
0.0
 10
1115.8850963611
 20
256.1326635315
 30
0.0
  0
SPLINE
  5
5C3
100
AcDbEntity
  8
0
100
AcDbSpline
 62
7
  6
CONTINUOUS
 70
0
 71
3
 72
9
 73
5
 74
0
 42
0.0000001
 43
0.0000001
 44
0.0000000001
 40
0.0
 40
0.0
 40
0.0
 40
0.0
 40
0.7450092849
 40
1.0
 40
1.0
 40
1.0
 40
1.0
 10
1329.5453503989
 20
258.6326635315
 30
0.0
 10
1329.5453503989
 20
257.0662383977
 30
0.0
 10
1330.0061361887
 20
254.931676683
 30
0.0
 10
1330.9793316341
 20
253.0657366347
 30
0.0
 10
1331.2567095022
 20
252.6069340333
 30
0.0
  0
SPLINE
  5
5C4
100
AcDbEntity
  8
0
100
AcDbSpline
 62
7
  6
CONTINUOUS
 70
0
 71
3
 72
15
 73
11
 74
0
 42
0.0000001
 43
0.0000001
 44
0.0000000001
 40
0.0
 40
0.0
 40
0.0
 40
0.0
 40
0.1166176977
 40
0.2383005051
 40
0.3668365888
 40
0.5
 40
0.6331634112
 40
0.7616994949
 40
0.8833823023
 40
1.0
 40
1.0
 40
1.0
 40
1.0
 10
1359.5453503989
 20
258.6326635315
 30
0.0
 10
1359.5453503989
 20
260.3330042493
 30
0.0
 10
1358.7190173646
 20
263.8515909807
 30
0.0
 10
1355.3051313546
 20
268.1586699816
 30
0.0
 10
1350.3316429054
 20
270.9758236201
 30
0.0
 10
1344.5453503989
 20
271.9523770998
 30
0.0
 10
1338.7590578925
 20
270.9758236201
 30
0.0
 10
1333.7855694433
 20
268.1586699816
 30
0.0
 10
1330.3716834332
 20
263.8515909807
 30
0.0
 10
1329.5453503989
 20
260.3330042493
 30
0.0
 10
1329.5453503989
 20
258.6326635315
 30
0.0
  0
SPLINE
  5
5C5
100
AcDbEntity
  8
0
100
AcDbSpline
 62
7
  6
CONTINUOUS
 70
0
 71
3
 72
9
 73
5
 74
0
 42
0.0000001
 43
0.0000001
 44
0.0000000001
 40
0.0
 40
0.0
 40
0.0
 40
0.0
 40
0.2549907151
 40
1.0
 40
1.0
 40
1.0
 40
1.0
 10
1356.6470977634
 20
250.6451304842
 30
0.0
 10
1356.8997012396
 20
251.0629544901
 30
0.0
 10
1357.7859743737
 20
252.7622354954
 30
0.0
 10
1358.2056044368
 20
254.7061458476
 30
0.0
 10
1358.2056044368
 20
256.1326635315
 30
0.0
  0
SPLINE
  5
5C6
100
AcDbEntity
  8
6_ALL_SURFS
100
AcDbSpline
 62
7
  6
CONTINUOUS
 70
0
 71
3
 72
15
 73
11
 74
0
 42
0.0000001
 43
0.0000001
 44
0.0000000001
 40
0.0
 40
0.0
 40
0.0
 40
0.0
 40
0.1166176977
 40
0.2383005051
 40
0.3668365888
 40
0.5
 40
0.6331634112
 40
0.7616994949
 40
0.8833823023
 40
1.0
 40
1.0
 40
1.0
 40
1.0
 10
1115.8850963611
 20
256.1326635315
 30
0.0
 10
1115.8850963611
 20
257.6811359419
 30
0.0
 10
1116.6376243056
 20
260.8854551823
 30
0.0
 10
1119.7465943159
 20
264.8078414031
 30
0.0
 10
1124.2758686939
 20
267.3733770275
 30
0.0
 10
1129.5453503989
 20
268.2627082685
 30
0.0
 10
1134.814832104
 20
267.3733770275
 30
0.0
 10
1139.344106482
 20
264.8078414031
 30
0.0
 10
1142.4530764922
 20
260.8854551823
 30
0.0
 10
1143.2056044368
 20
257.6811359419
 30
0.0
 10
1143.2056044368
 20
256.1326635315
 30
0.0
  0
SPLINE
  5
5C7
100
AcDbEntity
  8
6_ALL_SURFS
100
AcDbSpline
 62
7
  6
CONTINUOUS
 70
0
 71
3
 72
9
 73
5
 74
0
 42
0.0000001
 43
0.0000001
 44
0.0000000001
 40
0.0
 40
0.0
 40
0.0
 40
0.0
 40
0.7450092849
 40
1.0
 40
1.0
 40
1.0
 40
1.0
 10
1143.2056044368
 20
256.1326635315
 30
0.0
 10
1143.2056044368
 20
254.7061458476
 30
0.0
 10
1142.7859743737
 20
252.7622354954
 30
0.0
 10
1141.8997012396
 20
251.0629544901
 30
0.0
 10
1141.6470977634
 20
250.6451304842
 30
0.0
  0
SPLINE
  5
5C8
100
AcDbEntity
  8
0
100
AcDbSpline
 62
7
  6
CONTINUOUS
 70
0
 71
3
 72
9
 73
5
 74
0
 42
0.0000001
 43
0.0000001
 44
0.0000000001
 40
0.0
 40
0.0
 40
0.0
 40
0.0
 40
0.2549907151
 40
1.0
 40
1.0
 40
1.0
 40
1.0
 10
1357.8339912956
 20
252.6069340333
 30
0.0
 10
1358.1113691638
 20
253.0657366347
 30
0.0
 10
1359.0845646091
 20
254.931676683
 30
0.0
 10
1359.5453503989
 20
257.0662383977
 30
0.0
 10
1359.5453503989
 20
258.6326635315
 30
0.0
  0
SPLINE
  5
5C9
100
AcDbEntity
  8
6_ALL_SURFS
100
AcDbSpline
 62
7
  6
CONTINUOUS
 70
0
 71
3
 72
15
 73
11
 74
0
 42
0.0000001
 43
0.0000001
 44
0.0000000001
 40
0.0
 40
0.0
 40
0.0
 40
0.0
 40
0.1166176977
 40
0.2383005051
 40
0.3668365888
 40
0.5
 40
0.6331634112
 40
0.7616994949
 40
0.8833823023
 40
1.0
 40
1.0
 40
1.0
 40
1.0
 10
1114.5453503989
 20
258.6326635315
 30
0.0
 10
1114.5453503989
 20
260.3330042493
 30
0.0
 10
1115.3716834332
 20
263.8515909807
 30
0.0
 10
1118.7855694433
 20
268.1586699816
 30
0.0
 10
1123.7590578925
 20
270.9758236201
 30
0.0
 10
1129.5453503989
 20
271.9523770998
 30
0.0
 10
1135.3316429054
 20
270.9758236201
 30
0.0
 10
1140.3051313546
 20
268.1586699816
 30
0.0
 10
1143.7190173646
 20
263.8515909807
 30
0.0
 10
1144.5453503989
 20
260.3330042493
 30
0.0
 10
1144.5453503989
 20
258.6326635315
 30
0.0
  0
SPLINE
  5
5CA
100
AcDbEntity
  8
6_ALL_SURFS
100
AcDbSpline
 62
7
  6
CONTINUOUS
 70
0
 71
3
 72
9
 73
5
 74
0
 42
0.0000001
 43
0.0000001
 44
0.0000000001
 40
0.0
 40
0.0
 40
0.0
 40
0.0
 40
0.7450092849
 40
1.0
 40
1.0
 40
1.0
 40
1.0
 10
1144.5453503989
 20
258.6326635315
 30
0.0
 10
1144.5453503989
 20
257.0662383977
 30
0.0
 10
1144.0845646091
 20
254.931676683
 30
0.0
 10
1143.1113691638
 20
253.0657366347
 30
0.0
 10
1142.8339912956
 20
252.6069340333
 30
0.0
  0
SPLINE
  5
5CB
100
AcDbEntity
  8
6_ALL_SURFS
100
AcDbSpline
 62
7
  6
CONTINUOUS
 70
0
 71
3
 72
13
 73
9
 74
0
 42
0.0000001
 43
0.0000001
 44
0.0000000001
 40
0.0
 40
0.0
 40
0.0
 40
0.0
 40
0.2028138218
 40
0.3443480451
 40
0.5
 40
0.6556519549
 40
0.7971861782
 40
1.0
 40
1.0
 40
1.0
 40
1.0
 10
2635.3952677092
 20
821.3123969257
 30
0.0
 10
2634.7820429075
 20
819.3400804166
 30
0.0
 10
2631.3539232126
 20
817.1090110878
 30
0.0
 10
2626.5405151552
 20
815.805215555
 30
0.0
 10
2621.8976967646
 20
815.3889388562
 30
0.0
 10
2617.254878374
 20
815.805215555
 30
0.0
 10
2612.4414703166
 20
817.1090110878
 30
0.0
 10
2609.0133506218
 20
819.3400804166
 30
0.0
 10
2608.40012582
 20
821.3123969257
 30
0.0
  0
SPLINE
  5
5CC
100
AcDbEntity
  8
0
100
AcDbSpline
 62
7
  6
CONTINUOUS
 70
0
 71
3
 72
13
 73
9
 74
0
 42
0.0000001
 43
0.0000001
 44
0.0000000001
 40
0.0
 40
0.0
 40
0.0
 40
0.0
 40
0.2028138218
 40
0.3443480451
 40
0.5
 40
0.6556519549
 40
0.7971861782
 40
1.0
 40
1.0
 40
1.0
 40
1.0
 10
2393.40012582
 20
821.3123969257
 30
0.0
 10
2394.0133506218
 20
819.3400804166
 30
0.0
 10
2397.4414703166
 20
817.1090110878
 30
0.0
 10
2402.254878374
 20
815.805215555
 30
0.0
 10
2406.8976967646
 20
815.3889388562
 30
0.0
 10
2411.5405151552
 20
815.805215555
 30
0.0
 10
2416.3539232126
 20
817.1090110878
 30
0.0
 10
2419.7820429075
 20
819.3400804166
 30
0.0
 10
2420.3952677092
 20
821.3123969257
 30
0.0
  0
SPLINE
  5
5CD
100
AcDbEntity
  8
0
100
AcDbSpline
 62
7
  6
CONTINUOUS
 70
0
 71
3
 72
16
 73
12
 74
0
 42
0.0000001
 43
0.0000001
 44
0.0000000001
 40
0.0
 40
0.0
 40
0.0
 40
0.0
 40
0.0855047605
 40
0.1979070382
 40
0.4179493222
 40
0.5396789496
 40
0.6587902694
 40
0.7678875612
 40
0.8613367427
 40
0.9371391994
 40
1.0
 40
1.0
 40
1.0
 40
1.0
 10
2420.5579508025
 20
822.3621507374
 30
0.0
 10
2420.5579508025
 20
823.2998987543
 30
0.0
 10
2419.5364085715
 20
825.4435141968
 30
0.0
 10
2415.5996802421
 20
827.9785408298
 30
0.0
 10
2410.6453038667
 20
829.1333077826
 30
0.0
 10
2405.5846188726
 20
829.2566733353
 30
0.0
 10
2401.758722503
 20
828.792623562
 30
0.0
 10
2398.3505172393
 20
827.8121490221
 30
0.0
 10
2395.624291712
 20
826.3830284771
 30
0.0
 10
2393.7478219219
 20
824.5806226395
 30
0.0
 10
2393.2374427268
 20
823.0515578631
 30
0.0
 10
2393.2374427268
 20
822.3621507374
 30
0.0
  0
SPLINE
  5
5CE
100
AcDbEntity
  8
0
100
AcDbSpline
 62
7
  6
CONTINUOUS
 70
0
 71
3
 72
16
 73
12
 74
0
 42
0.0000001
 43
0.0000001
 44
0.0000000001
 40
0.0
 40
0.0
 40
0.0
 40
0.0
 40
0.0855047605
 40
0.1979070382
 40
0.4179493222
 40
0.5396789496
 40
0.6587902694
 40
0.7678875612
 40
0.8613367427
 40
0.9371391994
 40
1.0
 40
1.0
 40
1.0
 40
1.0
 10
2421.8976967646
 20
826.6922777564
 30
0.0
 10
2421.8976967646
 20
827.7219965459
 30
0.0
 10
2420.7759655419
 20
830.0758496697
 30
0.0
 10
2416.4531378128
 20
832.8595021105
 30
0.0
 10
2411.0128549729
 20
834.127524231
 30
0.0
 10
2405.4558371678
 20
834.2629890097
 30
0.0
 10
2401.2547113772
 20
833.7534269928
 30
0.0
 10
2397.5122422537
 20
832.6767912247
 30
0.0
 10
2394.5186388554
 20
831.1075079511
 30
0.0
 10
2392.4581320176
 20
829.1283289776
 30
0.0
 10
2391.8976967646
 20
827.4492993209
 30
0.0
 10
2391.8976967646
 20
826.6922777564
 30
0.0
  0
SPLINE
  5
5CF
100
AcDbEntity
  8
7_ALL_ROUNDS
100
AcDbSpline
 62
7
  6
CONTINUOUS
 70
0
 71
3
 72
9
 73
5
 74
0
 42
0.0000001
 43
0.0000001
 44
0.0000000001
 40
0.0
 40
0.0
 40
0.0
 40
0.0
 40
0.3034330682
 40
1.0
 40
1.0
 40
1.0
 40
1.0
 10
2369.7493015282
 20
771.8967604283
 30
0.0
 10
2369.8246156573
 20
771.8967604283
 30
0.0
 10
2369.9590021329
 20
772.1904935499
 30
0.0
 10
2370.0031337633
 20
772.3971113423
 30
0.0
 10
2370.0371060992
 20
772.5666334093
 30
0.0
  0
SPLINE
  5
5D0
100
AcDbEntity
  8
7_ALL_ROUNDS
100
AcDbSpline
 62
7
  6
CONTINUOUS
 70
0
 71
3
 72
9
 73
5
 74
0
 42
0.0000001
 43
0.0000001
 44
0.0000000001
 40
0.0
 40
0.0
 40
0.0
 40
0.0
 40
0.3291326959
 40
1.0
 40
1.0
 40
1.0
 40
1.0
 10
2381.88091857
 20
1219.3875126845
 30
0.0
 10
2381.8580839624
 20
1219.4275650134
 30
0.0
 10
2381.7850399924
 20
1219.5434829829
 30
0.0
 10
2381.68116044
 20
1219.6624649116
 30
0.0
 10
2381.5897562374
 20
1219.6842906885
 30
0.0
  0
SPLINE
  5
5D1
100
AcDbEntity
  8
6_ALL_SURFS
100
AcDbSpline
 62
7
  6
CONTINUOUS
 70
0
 71
3
 72
9
 73
5
 74
0
 42
0.0000001
 43
0.0000001
 44
0.0000000001
 40
0.0
 40
0.0
 40
0.0
 40
0.0
 40
0.3034330682
 40
1.0
 40
1.0
 40
1.0
 40
1.0
 10
2659.046092001
 20
771.8967604283
 30
0.0
 10
2658.970777872
 20
771.8967604283
 30
0.0
 10
2658.8363913963
 20
772.1904935499
 30
0.0
 10
2658.7922597659
 20
772.3971113423
 30
0.0
 10
2658.75828743
 20
772.5666334093
 30
0.0
  0
SPLINE
  5
5D2
100
AcDbEntity
  8
6_ALL_SURFS
100
AcDbSpline
 62
9
  6
CONTINUOUS
 70
0
 71
3
 72
11
 73
7
 74
0
 42
0.0000001
 43
0.0000001
 44
0.0000000001
 40
0.0
 40
0.0
 40
0.0
 40
0.0
 40
0.097509394
 40
0.301447066
 40
0.6056642907
 40
1.0
 40
1.0
 40
1.0
 40
1.0
 10
2568.5437746874
 20
1173.6724875654
 30
0.0
 10
2568.4695558698
 20
1173.8866833772
 30
0.0
 10
2568.4801705961
 20
1174.6051993116
 30
0.0
 10
2568.456078653
 20
1175.9999174724
 30
0.0
 10
2568.542598884
 20
1178.1037395207
 30
0.0
 10
2568.6161023315
 20
1179.7238177422
 30
0.0
 10
2568.6639817457
 20
1180.6393182008
 30
0.0
  0
SPLINE
  5
5D3
100
AcDbEntity
  8
7_ALL_ROUNDS
100
AcDbSpline
 62
9
  6
CONTINUOUS
 70
0
 71
3
 72
11
 73
7
 74
0
 42
0.0000001
 43
0.0000001
 44
0.0000000001
 40
0.0
 40
0.0
 40
0.0
 40
0.0
 40
0.097509394
 40
0.301447066
 40
0.6056642907
 40
1.0
 40
1.0
 40
1.0
 40
1.0
 10
2460.2516188418
 20
1173.6724875654
 30
0.0
 10
2460.3258376595
 20
1173.8866833772
 30
0.0
 10
2460.3152229332
 20
1174.6051993116
 30
0.0
 10
2460.3393148762
 20
1175.9999174724
 30
0.0
 10
2460.2527946452
 20
1178.1037395207
 30
0.0
 10
2460.1792911977
 20
1179.7238177422
 30
0.0
 10
2460.1314117835
 20
1180.6393182008
 30
0.0
  0
SPLINE
  5
5D4
100
AcDbEntity
  8
6_ALL_SURFS
100
AcDbSpline
 62
7
  6
CONTINUOUS
 70
0
 71
3
 72
9
 73
5
 74
0
 42
0.0000001
 43
0.0000001
 44
0.0000000001
 40
0.0
 40
0.0
 40
0.0
 40
0.0
 40
0.3291326959
 40
1.0
 40
1.0
 40
1.0
 40
1.0
 10
2646.9144749593
 20
1219.3875126845
 30
0.0
 10
2646.9373095669
 20
1219.4275650134
 30
0.0
 10
2647.0103535368
 20
1219.5434829829
 30
0.0
 10
2647.1142330893
 20
1219.6624649116
 30
0.0
 10
2647.2056372918
 20
1219.6842906885
 30
0.0
  0
SPLINE
  5
5D5
100
AcDbEntity
  8
6_ALL_SURFS
100
AcDbSpline
 62
7
  6
CONTINUOUS
 70
0
 71
3
 72
16
 73
12
 74
0
 42
0.0000001
 43
0.0000001
 44
0.0000000001
 40
0.0
 40
0.0
 40
0.0
 40
0.0
 40
0.0855047605
 40
0.1979070382
 40
0.4179493222
 40
0.5396789496
 40
0.6587902694
 40
0.7678875612
 40
0.8613367427
 40
0.9371391994
 40
1.0
 40
1.0
 40
1.0
 40
1.0
 10
2606.8976967646
 20
826.6922777564
 30
0.0
 10
2606.8976967646
 20
827.7219965459
 30
0.0
 10
2608.0194279874
 20
830.0758496697
 30
0.0
 10
2612.3422557164
 20
832.8595021105
 30
0.0
 10
2617.7825385564
 20
834.127524231
 30
0.0
 10
2623.3395563614
 20
834.2629890097
 30
0.0
 10
2627.540682152
 20
833.7534269928
 30
0.0
 10
2631.2831512755
 20
832.6767912247
 30
0.0
 10
2634.2767546738
 20
831.1075079511
 30
0.0
 10
2636.3372615116
 20
829.1283289776
 30
0.0
 10
2636.8976967646
 20
827.4492993209
 30
0.0
 10
2636.8976967646
 20
826.6922777564
 30
0.0
  0
SPLINE
  5
5D6
100
AcDbEntity
  8
6_ALL_SURFS
100
AcDbSpline
 62
9
  6
CONTINUOUS
 70
0
 71
3
 72
11
 73
7
 74
0
 42
0.0000001
 43
0.0000001
 44
0.0000000001
 40
0.0
 40
0.0
 40
0.0
 40
0.0
 40
0.1004254067
 40
0.3031513051
 40
0.6063348266
 40
1.0
 40
1.0
 40
1.0
 40
1.0
 10
2583.0937938296
 20
1185.2137705582
 30
0.0
 10
2583.0358807036
 20
1185.2715952377
 30
0.0
 10
2583.0145442955
 20
1185.5457663173
 30
0.0
 10
2583.0144257999
 20
1186.0200777466
 30
0.0
 10
2583.0895452376
 20
1186.7603027146
 30
0.0
 10
2583.1659107357
 20
1187.3198339721
 30
0.0
 10
2583.2140008878
 20
1187.6370159966
 30
0.0
  0
SPLINE
  5
5D7
100
AcDbEntity
  8
6_ALL_SURFS
100
AcDbSpline
 62
9
  6
CONTINUOUS
 70
0
 71
3
 72
11
 73
7
 74
0
 42
0.0000001
 43
0.0000001
 44
0.0000000001
 40
0.0
 40
0.0
 40
0.0
 40
0.0
 40
0.2868206669
 40
0.5528687706
 40
0.7894725808
 40
1.0
 40
1.0
 40
1.0
 40
1.0
 10
2568.6639817457
 20
1180.6393182008
 30
0.0
 10
2570.3064844231
 20
1180.5104460458
 30
0.0
 10
2573.516016637
 20
1180.620955164
 30
0.0
 10
2577.918472843
 20
1181.918116864
 30
0.0
 10
2581.3894586645
 20
1184.2413596528
 30
0.0
 10
2582.8357618218
 20
1186.4883834873
 30
0.0
 10
2583.214001194
 20
1187.637018016
 30
0.0
  0
SPLINE
  5
5D8
100
AcDbEntity
  8
7_ALL_ROUNDS
100
AcDbSpline
 62
9
  6
CONTINUOUS
 70
0
 71
3
 72
11
 73
7
 74
0
 42
0.0000001
 43
0.0000001
 44
0.0000000001
 40
0.0
 40
0.0
 40
0.0
 40
0.0
 40
0.1004254067
 40
0.3031513051
 40
0.6063348266
 40
1.0
 40
1.0
 40
1.0
 40
1.0
 10
2445.7015996997
 20
1185.2137705582
 30
0.0
 10
2445.7595128256
 20
1185.2715952377
 30
0.0
 10
2445.7808492337
 20
1185.5457663173
 30
0.0
 10
2445.7809677293
 20
1186.0200777466
 30
0.0
 10
2445.7058482916
 20
1186.7603027146
 30
0.0
 10
2445.6294827935
 20
1187.3198339721
 30
0.0
 10
2445.5813926414
 20
1187.6370159966
 30
0.0
  0
SPLINE
  5
5D9
100
AcDbEntity
  8
6_ALL_SURFS
100
AcDbSpline
 62
7
  6
CONTINUOUS
 70
0
 71
3
 72
16
 73
12
 74
0
 42
0.0000001
 43
0.0000001
 44
0.0000000001
 40
0.0
 40
0.0
 40
0.0
 40
0.0
 40
0.0855047605
 40
0.1979070382
 40
0.4179493222
 40
0.5396789496
 40
0.6587902694
 40
0.7678875612
 40
0.8613367427
 40
0.9371391994
 40
1.0
 40
1.0
 40
1.0
 40
1.0
 10
2608.2374427268
 20
822.3621507374
 30
0.0
 10
2608.2374427268
 20
823.2998987543
 30
0.0
 10
2609.2589849578
 20
825.4435141968
 30
0.0
 10
2613.1957132871
 20
827.9785408298
 30
0.0
 10
2618.1500896626
 20
829.1333077826
 30
0.0
 10
2623.2107746566
 20
829.2566733353
 30
0.0
 10
2627.0366710262
 20
828.792623562
 30
0.0
 10
2630.4448762899
 20
827.8121490221
 30
0.0
 10
2633.1711018172
 20
826.3830284771
 30
0.0
 10
2635.0475716073
 20
824.5806226395
 30
0.0
 10
2635.5579508025
 20
823.0515578631
 30
0.0
 10
2635.5579508025
 20
822.3621507374
 30
0.0
  0
SPLINE
  5
5DA
100
AcDbEntity
  8
7_ALL_ROUNDS
100
AcDbSpline
 62
9
  6
CONTINUOUS
 70
0
 71
3
 72
11
 73
7
 74
0
 42
0.0000001
 43
0.0000001
 44
0.0000000001
 40
0.0
 40
0.0
 40
0.0
 40
0.0
 40
0.2868206669
 40
0.5528687706
 40
0.7894725808
 40
1.0
 40
1.0
 40
1.0
 40
1.0
 10
2460.1314117835
 20
1180.6393182008
 30
0.0
 10
2458.4889091061
 20
1180.5104460458
 30
0.0
 10
2455.2793768923
 20
1180.620955164
 30
0.0
 10
2450.8769206862
 20
1181.918116864
 30
0.0
 10
2447.4059348648
 20
1184.2413596528
 30
0.0
 10
2445.9596317074
 20
1186.4883834873
 30
0.0
 10
2445.5813923352
 20
1187.637018016
 30
0.0
  0
ELLIPSE
  5
5DB
100
AcDbEntity
  8
0
100
AcDbEllipse
 62
7
  6
CONTINUOUS
 10
1237.0453503989
 20
1136.8967604283
 30
0.0
 11
120.0
 21
-0.0
 31
0.0
 40
0.5416666667
 41
0.0
 42
6.2831853072
  0
ELLIPSE
  5
5DC
100
AcDbEntity
  8
6_ALL_SURFS
100
AcDbEllipse
 62
7
  6
CONTINUOUS
 10
1216.0513894588
 20
1676.2765991735
 30
0.0
 11
0.0834424799
 21
17.9999978676
 31
0.0
 40
0.1050019677
 41
-1.5266763386
 42
-0.1216862907
  0
ELLIPSE
  5
5DD
100
AcDbEntity
  8
6_ALL_SURFS
100
AcDbEllipse
 62
7
  6
CONTINUOUS
 10
1216.892223341
 20
1582.6958943651
 30
0.0
 11
0.0463569333
 21
9.9999988153
 31
0.0
 40
0.1050019677
 41
-3.053839434
 42
-1.5266763386
  0
ELLIPSE
  5
5DE
100
AcDbEntity
  8
0
100
AcDbEllipse
 62
7
  6
CONTINUOUS
 10
1258.039311339
 20
1676.2765991735
 30
0.0
 11
-0.0834424799
 21
17.9999978676
 31
0.0
 40
0.1050019677
 41
0.1216862907
 42
1.5266763386
  0
ELLIPSE
  5
5DF
100
AcDbEntity
  8
0
100
AcDbEllipse
 62
7
  6
CONTINUOUS
 10
1257.1984774569
 20
1582.6958943651
 30
0.0
 11
-0.0463569333
 21
9.9999988153
 31
0.0
 40
0.1050019677
 41
1.5266763386
 42
3.053839434
  0
ELLIPSE
  5
5E0
100
AcDbEntity
  8
6_ALL_SURFS
100
AcDbEllipse
 62
7
  6
CONTINUOUS
 10
1216.0513894588
 20
1682.8987023967
 30
0.0
 11
0.1761563465
 21
37.9999954983
 31
0.0
 40
0.1050019677
 41
-1.5266763386
 42
-0.2962192159
  0
ELLIPSE
  5
5E1
100
AcDbEntity
  8
7_ALL_ROUNDS
100
AcDbEllipse
 62
7
  6
CONTINUOUS
 10
1324.6327733764
 20
1739.5598119531
 30
0.0
 11
0.4577465203
 21
4.9988589063
 31
0.0
 40
0.2333516254
 41
-1.5057982913
 42
-1.2003656722
  0
ELLIPSE
  5
5E2
100
AcDbEntity
  8
0
100
AcDbEllipse
 62
7
  6
CONTINUOUS
 10
1258.039311339
 20
1682.8987023967
 30
0.0
 11
-0.1761563465
 21
37.9999954983
 31
0.0
 40
0.1050019677
 41
0.2962192159
 42
1.5266763386
  0
ELLIPSE
  5
5E3
100
AcDbEntity
  8
7_ALL_ROUNDS
100
AcDbEllipse
 62
7
  6
CONTINUOUS
 10
1296.8267564787
 20
1562.3171048065
 30
0.0
 11
-3.264758013
 21
21.655212373
 31
0.0
 40
0.6849192862
 41
-3.2444869937
 42
-1.8943471528
  0
ELLIPSE
  5
5E4
100
AcDbEntity
  8
6_ALL_SURFS
100
AcDbEllipse
 62
7
  6
CONTINUOUS
 10
1177.2639443192
 20
1562.3171048065
 30
0.0
 11
3.264758013
 21
21.655212373
 31
0.0
 40
0.6849192862
 41
-4.3888381544
 42
-3.0386983135
  0
ELLIPSE
  5
5E5
100
AcDbEntity
  8
6_ALL_SURFS
100
AcDbEllipse
 62
7
  6
CONTINUOUS
 10
1149.4579274214
 20
1739.5598119531
 30
0.0
 11
-0.4577465203
 21
4.9988589063
 31
0.0
 40
0.2333516254
 41
1.2003656722
 42
1.5057982913
  0
ELLIPSE
  5
5E6
100
AcDbEntity
  8
6_ALL_SURFS
100
AcDbEllipse
 62
7
  6
CONTINUOUS
 10
1105.8364075791
 20
1197.9495058733
 30
0.0
 11
-91.1886869812
 21
4267.5238742097
 31
0.0
 40
0.2333516254
 41
-1.5794535693
 42
-1.5731279163
  0
ELLIPSE
  5
5E7
100
AcDbEntity
  8
7_ALL_ROUNDS
100
AcDbEllipse
 62
7
  6
CONTINUOUS
 10
1354.545895458
 20
2082.0776885081
 30
0.0
 11
1854.2109570798
 21
1696.3836736061
 31
0.0
 40
0.6979666973
 41
-1.2384977621
 42
-1.2002695016
  0
ELLIPSE
  5
5E8
100
AcDbEntity
  8
0
100
AcDbEllipse
 62
7
  6
CONTINUOUS
 10
3077.9967238436
 20
1804.680853569
 30
0.0
 11
63.948421608
 21
4.1686618897
 31
0.0
 40
0.6162468236
 41
-0.3678563975
 42
-0.203742692
  0
ELLIPSE
  5
5E9
100
AcDbEntity
  8
0
100
AcDbEllipse
 62
7
  6
CONTINUOUS
 10
3077.9967238436
 20
1507.2230922117
 30
0.0
 11
53.9406823878
 21
49.3493432322
 31
0.0
 40
0.6979666973
 41
-1.2002695016
 42
-0.7318812545
  0
ELLIPSE
  5
5EA
100
AcDbEntity
  8
0
100
AcDbEllipse
 62
7
  6
CONTINUOUS
 10
2353.1294003348
 20
1238.8605607419
 30
0.0
 11
999.538931142
 21
-56.6574970674
 31
0.0
 40
0.535908249
 41
0.6935896273
 42
0.6976948166
  0
ELLIPSE
  5
5EB
100
AcDbEntity
  8
6_ALL_SURFS
100
AcDbEllipse
 62
7
  6
CONTINUOUS
 10
2353.1294003348
 20
1763.4808742161
 30
0.0
 11
996.4654832519
 21
-240.2301509732
 31
0.0
 40
0.3496780815
 41
0.7473240686
 42
0.7805165413
  0
ELLIPSE
  5
5EC
100
AcDbEntity
  8
7_ALL_ROUNDS
100
AcDbEllipse
 62
7
  6
CONTINUOUS
 10
3098.5233444781
 20
1830.864725488
 30
0.0
 11
3.5238571623
 21
3.7019367548
 31
0.0
 40
0.4703003907
 41
0.5496625141
 42
0.8550951332
  0
ELLIPSE
  5
5ED
100
AcDbEntity
  8
7_ALL_ROUNDS
100
AcDbEllipse
 62
7
  6
CONTINUOUS
 10
2953.5320012327
 20
1780.2450126643
 30
0.0
 11
17.5433236743
 21
4.8271347859
 31
0.0
 40
0.5479973621
 41
-2.6460193821
 42
-1.2958795411
  0
ELLIPSE
  5
5EE
100
AcDbEntity
  8
0
100
AcDbEllipse
 62
7
  6
CONTINUOUS
 10
2939.9205566989
 20
1779.5078002371
 30
0.0
 11
4.07751084
 21
9.1674394656
 31
0.0
 40
0.6310524839
 41
0.6754231011
 42
2.2025861966
  0
ELLIPSE
  5
5EF
100
AcDbEntity
  8
6_ALL_SURFS
100
AcDbEllipse
 62
7
  6
CONTINUOUS
 10
4241.040818704
 20
911.3720101896
 30
0.0
 11
2199.5599638312
 21
-79.739348324
 31
0.0
 40
0.5517929228
 41
2.2227781872
 42
2.3184695664
  0
ELLIPSE
  5
5F0
100
AcDbEntity
  8
6_ALL_SURFS
100
AcDbEllipse
 62
7
  6
CONTINUOUS
 10
2979.2114950088
 20
1895.0325108998
 30
0.0
 11
63.9871989478
 21
-2.3196901331
 31
0.0
 40
0.5517929228
 41
2.1953457283
 42
2.2227781872
  0
ELLIPSE
  5
5F1
100
AcDbEntity
  8
6_ALL_SURFS
100
AcDbEllipse
 62
7
  6
CONTINUOUS
 10
2979.2114950088
 20
1898.2437606166
 30
0.0
 11
63.7737909281
 21
-15.3747296623
 31
0.0
 40
0.3496780815
 41
1.8184911135
 42
2.2356940265
  0
ELLIPSE
  5
5F2
100
AcDbEntity
  8
6_ALL_SURFS
100
AcDbEllipse
 62
7
  6
CONTINUOUS
 10
2353.1294003348
 20
1458.2662018725
 30
0.0
 11
-710.9141479716
 21
3878.7467830635
 31
0.0
 40
0.1813159873
 41
-1.4935370597
 42
-1.4872114067
  0
ELLIPSE
  5
5F3
100
AcDbEntity
  8
6_ALL_SURFS
100
AcDbEllipse
 62
7
  6
CONTINUOUS
 10
2353.1294003348
 20
1763.4808742161
 30
0.0
 11
996.4654832519
 21
-240.2301509732
 31
0.0
 40
0.3496780815
 41
0.9584844429
 42
0.9916769156
  0
ELLIPSE
  5
5F4
100
AcDbEntity
  8
6_ALL_SURFS
100
AcDbEllipse
 62
7
  6
CONTINUOUS
 10
2991.8361240237
 20
1863.7606860349
 30
0.0
 11
-7.5016298409
 21
12.9894401024
 31
0.0
 40
0.5800973804
 41
1.018368359
 42
1.7473114429
  0
ELLIPSE
  5
5F5
100
AcDbEntity
  8
6_ALL_SURFS
100
AcDbEllipse
 62
7
  6
CONTINUOUS
 10
2981.6792568025
 20
1827.1197628568
 30
0.0
 11
21.8267174308
 21
31.2328624289
 31
0.0
 40
0.5164566221
 41
0.0446170154
 42
0.786578368
  0
ELLIPSE
  5
5F6
100
AcDbEntity
  8
0
100
AcDbEllipse
 62
7
  6
CONTINUOUS
 10
2869.3496938203
 20
1706.5413466638
 30
0.0
 11
80.3571305417
 21
-63.4499293065
 31
0.0
 40
0.4295213934
 41
0.0
 42
6.2831853072
  0
ELLIPSE
  5
5F7
100
AcDbEntity
  8
0
100
AcDbEllipse
 62
7
  6
CONTINUOUS
 10
3011.3692010919
 20
1809.9737766175
 30
0.0
 11
15.494541192
 21
34.8362699691
 31
0.0
 40
0.6310524839
 41
5.7281512856
 42
6.9586084083
  0
ELLIPSE
  5
5F8
100
AcDbEntity
  8
0
100
AcDbEllipse
 62
7
  6
CONTINUOUS
 10
3006.686666997
 20
1807.5056468424
 30
0.0
 11
7.339519512
 21
16.501391038
 31
0.0
 40
0.6310524839
 41
-0.7295669468
 42
0.6754231011
  0
ELLIPSE
  5
5F9
100
AcDbEntity
  8
6_ALL_SURFS
100
AcDbEllipse
 62
7
  6
CONTINUOUS
 10
1354.545895458
 20
2578.327048952
 30
0.0
 11
2199.5599638312
 21
-79.739348324
 31
0.0
 40
0.5517929228
 41
-0.7076709288
 42
-0.6119795497
  0
ELLIPSE
  5
5FA
100
AcDbEntity
  8
7_ALL_ROUNDS
100
AcDbEllipse
 62
7
  6
CONTINUOUS
 10
3077.9967238436
 20
1841.1951465223
 30
0.0
 11
63.7737909281
 21
-15.3747296623
 31
0.0
 40
0.3496780815
 41
-0.4966930422
 42
-0.0794901293
  0
ELLIPSE
  5
5FB
100
AcDbEntity
  8
6_ALL_SURFS
100
AcDbEllipse
 62
7
  6
CONTINUOUS
 10
2974.65602301
 20
1902.3982847527
 30
0.0
 11
1.1034150241
 21
5.0257029784
 31
0.0
 40
0.6261928622
 41
0.2401699056
 42
0.5456025247
  0
ELLIPSE
  5
5FC
100
AcDbEntity
  8
6_ALL_SURFS
100
AcDbEllipse
 62
7
  6
CONTINUOUS
 10
2868.988325977
 20
1829.069108743
 30
0.0
 11
19.6741186241
 21
3.6682096894
 31
0.0
 40
0.4529664933
 41
2.2780959566
 42
3.6069673646
  0
ELLIPSE
  5
5FD
100
AcDbEntity
  8
0
100
AcDbEllipse
 62
7
  6
CONTINUOUS
 10
3077.9967238436
 20
1545.8901425299
 30
0.0
 11
63.9704915931
 21
-3.6260798123
 31
0.0
 40
0.535908249
 41
-0.297338276
 42
-0.1332245706
  0
ELLIPSE
  5
5FE
100
AcDbEntity
  8
7_ALL_ROUNDS
100
AcDbEllipse
 62
7
  6
CONTINUOUS
 10
3077.9967238436
 20
1837.9838968054
 30
0.0
 11
63.9871989478
 21
-2.3196901331
 31
0.0
 40
0.5517929228
 41
-0.6119795497
 42
-0.5845470908
  0
ELLIPSE
  5
5FF
100
AcDbEntity
  8
0
100
AcDbEllipse
 62
7
  6
CONTINUOUS
 10
2493.4037358245
 20
1184.4206157104
 30
0.0
 11
1.8901146675
 21
17.9999979594
 31
0.0
 40
0.0045345835
 41
-1.448147119
 42
-0.0431570711
  0
ELLIPSE
  5
600
100
AcDbEntity
  8
6_ALL_SURFS
100
AcDbEllipse
 62
7
  6
CONTINUOUS
 10
2535.3916577047
 20
1184.4206157104
 30
0.0
 11
-1.8901146675
 21
17.9999979594
 31
0.0
 40
0.0045345835
 41
0.0431570711
 42
1.448147119
  0
ELLIPSE
  5
601
100
AcDbEntity
  8
7_ALL_ROUNDS
100
AcDbEllipse
 62
7
  6
CONTINUOUS
 10
2450.619667565
 20
1179.0274599917
 30
0.0
 11
10.6714550834
 21
10.6454599552
 31
0.0
 40
0.9951340344
 41
2.5905944797
 42
3.9257713574
  0
ELLIPSE
  5
602
100
AcDbEntity
  8
7_ALL_ROUNDS
100
AcDbEllipse
 62
7
  6
CONTINUOUS
 10
2444.5459915744
 20
1220.1868894605
 30
0.0
 11
64.0
 21
0.0
 31
0.0
 40
0.0436609429
 41
-2.9881751952
 42
-2.9607427363
  0
ELLIPSE
  5
603
100
AcDbEntity
  8
0
100
AcDbEllipse
 62
7
  6
CONTINUOUS
 10
2514.3976967646
 20
929.198375772
 30
0.0
 11
1000.0
 21
0.0
 31
0.0
 40
0.0699268119
 41
-1.6929727503
 42
-1.648374118
  0
ELLIPSE
  5
604
100
AcDbEntity
  8
0
100
AcDbEllipse
 62
7
  6
CONTINUOUS
 10
2514.3976967646
 20
263.5134402788
 30
0.0
 11
1000.0
 21
0.0
 31
0.0
 40
0.5773502692
 41
1.648374118
 42
1.6929727503
  0
ELLIPSE
  5
605
100
AcDbEntity
  8
6_ALL_SURFS
100
AcDbEllipse
 62
7
  6
CONTINUOUS
 10
2514.3976967646
 20
1197.9495058733
 30
0.0
 11
-996.6517659699
 21
4267.5342043358
 31
0.0
 40
0.0191594067
 41
1.5636671761
 42
1.5699928291
  0
ELLIPSE
  5
606
100
AcDbEntity
  8
6_ALL_SURFS
100
AcDbEllipse
 62
7
  6
CONTINUOUS
 10
2514.3976967646
 20
1112.5951450845
 30
0.0
 11
1000.0
 21
-0.0
 31
0.0
 40
0.0699268119
 41
1.6534546246
 42
1.6929727503
  0
ELLIPSE
  5
607
100
AcDbEntity
  8
6_ALL_SURFS
100
AcDbEllipse
 62
7
  6
CONTINUOUS
 10
2514.3976967646
 20
1571.8085720902
 30
0.0
 11
1000.0
 21
-0.0
 31
0.0
 40
0.3639702343
 41
-1.6929727503
 42
-1.6597802776
  0
ELLIPSE
  5
608
100
AcDbEntity
  8
6_ALL_SURFS
100
AcDbEllipse
 62
7
  6
CONTINUOUS
 10
2534.5508238226
 20
1196.5140590017
 30
0.0
 11
-1.0500637041
 21
9.9999988664
 31
0.0
 40
0.0045345835
 41
-1.4840060244
 42
-0.0004761482
  0
ELLIPSE
  5
609
100
AcDbEntity
  8
0
100
AcDbEllipse
 62
7
  6
CONTINUOUS
 10
2494.2445697066
 20
1196.5140590017
 30
0.0
 11
1.0500637041
 21
9.9999988664
 31
0.0
 40
0.0045345835
 41
0.0004761482
 42
1.4840060244
  0
ELLIPSE
  5
60A
100
AcDbEntity
  8
0
100
AcDbEllipse
 62
7
  6
CONTINUOUS
 10
2493.4037358245
 20
1184.1314884396
 30
0.0
 11
3.9902420758
 21
37.9999956922
 31
0.0
 40
0.0045345835
 41
-1.2736141938
 42
-0.0431570711
  0
ELLIPSE
  5
60B
100
AcDbEntity
  8
6_ALL_SURFS
100
AcDbEllipse
 62
7
  6
CONTINUOUS
 10
4555.4578308524
 20
1234.4385065415
 30
0.0
 11
2200.0
 21
-0.0
 31
0.0
 40
0.0436609429
 41
-3.0838665744
 42
-2.9881751952
  0
ELLIPSE
  5
60C
100
AcDbEntity
  8
7_ALL_ROUNDS
100
AcDbEllipse
 62
7
  6
CONTINUOUS
 10
4555.4578308524
 20
626.5800406239
 30
0.0
 11
2200.0
 21
0.0
 31
0.0
 40
0.5773502692
 41
2.9881751952
 42
3.0264034557
  0
ELLIPSE
  5
60D
100
AcDbEntity
  8
7_ALL_ROUNDS
100
AcDbEllipse
 62
7
  6
CONTINUOUS
 10
2444.5459915744
 20
1224.1203662207
 30
0.0
 11
64.0
 21
0.0
 31
0.0
 40
0.3639702343
 41
-2.9369898611
 42
-2.5197869482
  0
ELLIPSE
  5
60E
100
AcDbEntity
  8
0
100
AcDbEllipse
 62
7
  6
CONTINUOUS
 10
2379.6764860798
 20
776.8967604283
 30
0.0
 11
0.0
 21
5.0
 31
0.0
 40
0.1051042353
 41
-3.1415926536
 42
-2.617993878
  0
ELLIPSE
  5
60F
100
AcDbEntity
  8
0
100
AcDbEllipse
 62
7
  6
CONTINUOUS
 10
2444.5459915744
 20
1179.3938156841
 30
0.0
 11
64.0
 21
0.0
 31
0.0
 40
0.0699268119
 41
2.5197869482
 42
2.6839006536
  0
ELLIPSE
  5
610
100
AcDbEntity
  8
0
100
AcDbEllipse
 62
7
  6
CONTINUOUS
 10
2444.5459915744
 20
862.3997051724
 30
0.0
 11
64.0
 21
-0.0
 31
0.0
 40
0.0699268119
 41
-2.6839006536
 42
-2.5197869482
  0
ELLIPSE
  5
611
100
AcDbEntity
  8
6_ALL_SURFS
100
AcDbEllipse
 62
7
  6
CONTINUOUS
 10
473.3375626769
 20
626.5800406239
 30
0.0
 11
2200.0
 21
0.0
 31
0.0
 40
0.5773502692
 41
0.1151891979
 42
0.1534174583
  0
ELLIPSE
  5
612
100
AcDbEntity
  8
6_ALL_SURFS
100
AcDbEllipse
 62
7
  6
CONTINUOUS
 10
473.3375626769
 20
1234.4385065415
 30
0.0
 11
2200.0
 21
-0.0
 31
0.0
 40
0.0436609429
 41
-0.1534174583
 42
-0.0577260792
  0
ELLIPSE
  5
613
100
AcDbEntity
  8
6_ALL_SURFS
100
AcDbEllipse
 62
7
  6
CONTINUOUS
 10
2584.2494019548
 20
1220.1868894605
 30
0.0
 11
64.0
 21
-0.0
 31
0.0
 40
0.0436609429
 41
-0.1808499172
 42
-0.1534174583
  0
ELLIPSE
  5
614
100
AcDbEntity
  8
6_ALL_SURFS
100
AcDbEllipse
 62
7
  6
CONTINUOUS
 10
2584.2494019548
 20
815.0362307551
 30
0.0
 11
64.0
 21
0.0
 31
0.0
 40
0.5773502692
 41
0.1534174583
 42
0.6218057054
  0
ELLIPSE
  5
615
100
AcDbEntity
  8
6_ALL_SURFS
100
AcDbEllipse
 62
7
  6
CONTINUOUS
 10
2584.2494019548
 20
862.3997051724
 30
0.0
 11
64.0
 21
0.0
 31
0.0
 40
0.0699268119
 41
-0.6218057054
 42
-0.457692
  0
ELLIPSE
  5
616
100
AcDbEntity
  8
6_ALL_SURFS
100
AcDbEllipse
 62
7
  6
CONTINUOUS
 10
2584.2494019548
 20
1179.3938156841
 30
0.0
 11
64.0
 21
-0.0
 31
0.0
 40
0.0699268119
 41
0.457692
 42
0.6218057054
  0
ELLIPSE
  5
617
100
AcDbEntity
  8
6_ALL_SURFS
100
AcDbEllipse
 62
7
  6
CONTINUOUS
 10
2584.2494019548
 20
1224.1203662207
 30
0.0
 11
64.0
 21
0.0
 31
0.0
 40
0.3639702343
 41
-0.6218057054
 42
-0.2046027925
  0
ELLIPSE
  5
618
100
AcDbEntity
  8
6_ALL_SURFS
100
AcDbEllipse
 62
7
  6
CONTINUOUS
 10
2514.3976967646
 20
929.198375772
 30
0.0
 11
1000.0
 21
-0.0
 31
0.0
 40
0.0699268119
 41
-1.4932185356
 42
-1.4486199033
  0
ELLIPSE
  5
619
100
AcDbEntity
  8
6_ALL_SURFS
100
AcDbEllipse
 62
7
  6
CONTINUOUS
 10
2514.3976967646
 20
263.5134402788
 30
0.0
 11
1000.0
 21
0.0
 31
0.0
 40
0.5773502692
 41
1.4486199033
 42
1.4932185356
  0
ELLIPSE
  5
61A
100
AcDbEntity
  8
6_ALL_SURFS
100
AcDbEllipse
 62
7
  6
CONTINUOUS
 10
2514.3976967646
 20
1197.9495058733
 30
0.0
 11
996.6517659699
 21
4267.5342043358
 31
0.0
 40
0.0191594067
 41
-1.5699928291
 42
-1.5636671761
  0
ELLIPSE
  5
61B
100
AcDbEntity
  8
6_ALL_SURFS
100
AcDbEllipse
 62
7
  6
CONTINUOUS
 10
2514.3976967646
 20
1571.8085720902
 30
0.0
 11
1000.0
 21
0.0
 31
0.0
 40
0.3639702343
 41
-1.481812376
 42
-1.4486199033
  0
ELLIPSE
  5
61C
100
AcDbEntity
  8
6_ALL_SURFS
100
AcDbEllipse
 62
7
  6
CONTINUOUS
 10
2514.3976967646
 20
1112.5951450845
 30
0.0
 11
1000.0
 21
0.0
 31
0.0
 40
0.0699268119
 41
1.4486199033
 42
1.488138029
  0
ELLIPSE
  5
61D
100
AcDbEntity
  8
6_ALL_SURFS
100
AcDbEllipse
 62
7
  6
CONTINUOUS
 10
2649.1189074494
 20
776.8967604283
 30
0.0
 11
-0.0
 21
5.0
 31
0.0
 40
0.1051042353
 41
-3.6651914292
 42
-3.1415926536
  0
ELLIPSE
  5
61E
100
AcDbEntity
  8
6_ALL_SURFS
100
AcDbEllipse
 62
7
  6
CONTINUOUS
 10
2535.3916577047
 20
1184.1314884396
 30
0.0
 11
-3.9902420758
 21
37.9999956922
 31
0.0
 40
0.0045345835
 41
0.0431570711
 42
1.2736141938
  0
ELLIPSE
  5
61F
100
AcDbEntity
  8
6_ALL_SURFS
100
AcDbEllipse
 62
7
  6
CONTINUOUS
 10
2601.9851197421
 20
1214.6890495806
 30
0.0
 11
1.1841842715
 21
4.9990575367
 31
0.0
 40
0.0819770836
 41
-0.3296494358
 42
-0.0242168167
  0
ELLIPSE
  5
620
100
AcDbEntity
  8
6_ALL_SURFS
100
AcDbEllipse
 62
7
  6
CONTINUOUS
 10
2574.1791028444
 20
1227.4323967241
 30
0.0
 11
15.1871319589
 21
0.1083213465
 31
0.0
 40
0.0621790774
 41
0.1064475786
 42
1.4565874195
  0
ELLIPSE
  5
621
100
AcDbEntity
  8
6_ALL_SURFS
100
AcDbEllipse
 62
7
  6
CONTINUOUS
 10
2578.1757259642
 20
1179.0274599917
 30
0.0
 11
10.6714550834
 21
-10.6454599552
 31
0.0
 40
0.9951340344
 41
-0.7841787039
 42
0.5509981739
  0
ELLIPSE
  5
622
100
AcDbEntity
  8
7_ALL_ROUNDS
100
AcDbEllipse
 62
7
  6
CONTINUOUS
 10
2426.8102737871
 20
1214.6890495806
 30
0.0
 11
-1.1841842715
 21
4.9990575367
 31
0.0
 40
0.0819770836
 41
0.0242168167
 42
0.3296494358
  0
ELLIPSE
  5
623
100
AcDbEntity
  8
0
100
AcDbEllipse
 62
7
  6
CONTINUOUS
 10
2444.5459915744
 20
815.0362307551
 30
0.0
 11
64.0
 21
0.0
 31
0.0
 40
0.5773502692
 41
2.5197869482
 42
2.9881751952
  0
ELLIPSE
  5
624
100
AcDbEntity
  8
7_ALL_ROUNDS
100
AcDbEllipse
 62
7
  6
CONTINUOUS
 10
2454.6162906848
 20
1227.4323967241
 30
0.0
 11
15.1871319589
 21
-0.1083213465
 31
0.0
 40
0.0621790774
 41
1.6850052341
 42
3.035145075
  0
ENDSEC
  0
SECTION
  2
OBJECTS
  0
DICTIONARY
  5
C
100
AcDbDictionary
280
0
281
1
  3
ACAD_GROUP
350
D
  3
ACAD_MLINESTYLE
350
17
  3
ACAD_LAYOUT
350
1A
  3
ACAD_PLOTSETTINGS
350
19
  3
ACAD_PLOTSTYLENAME
350
E
  0
DICTIONARY
  5
D
102
{ACAD_REACTORS
330
C
102
}
100
AcDbDictionary
280
0
281
1
  0
ACDBDICTIONARYWDFLT
  5
E
102
{ACAD_REACTORS
330
C
102
}
100
AcDbDictionary
281
1
  3
Normal
350
F
100
AcDbDictionaryWithDefault
340
F
  0
DICTIONARY
  5
17
102
{ACAD_REACTORS
330
C
102
}
100
AcDbDictionary
280
0
281
1
  3
Standard
350
18
  0
DICTIONARY
  5
19
102
{ACAD_REACTORS
330
C
102
}
100
AcDbDictionary
281
1
  0
DICTIONARY
  5
1A
102
{ACAD_REACTORS
330
C
102
}
100
AcDbDictionary
281
1
  3
Model
350
625
  3
Layout1
350
626
  0
ACDBPLACEHOLDER
  5
F
102
{ACAD_REACTORS
330
E
102
}
  0
MLINESTYLE
  5
18
102
{ACAD_REACTORS
330
17
102
}
100
AcDbMlineStyle
  2
STANDARD
 70
0
  3

 62
256
 51
90.0
 52
90.0
 71
2
 49
0.5
 62
256
  6
BYLAYER
 49
-0.5
 62
256
  6
BYLAYER
  0
LAYOUT
  5
625
102
{ACAD_REACTORS
330
1A
102
}
100
AcDbPlotSettings
  1

  2
none_device
  4

  6

 40
0.0
 41
0.0
 42
0.0
 43
0.0
 44
431.8
 45
279.4
 46
0.0
 47
0.0
 48
0.0
 49
0.0
140
0.0
141
0.0
142
1.0
143
1.0
 70
1024
 72
1
 73
0
 74
0
  7

 75
0
147
1.0
148
0.0
149
0.0
100
AcDbLayout
  1
Model
 70
0
 71
0
 10
0.0
 20
0.0
 11
431.8
 21
279.4
 12
0.0
 22
0.0
 32
0.0
 14
0.0
 24
0.0
 34
0.0
 15
0.0
 25
0.0
 35
0.0
146
0.0
 13
0.0
 23
0.0
 33
0.0
 16
1.0
 26
0.0
 36
0.0
 17
0.0
 27
1.0
 37
0.0
 76
0
330
212
345
0
346
0
  0
LAYOUT
  5
626
102
{ACAD_REACTORS
330
1A
102
}
100
AcDbPlotSettings
  1

  2
none_device
  4

  6

 40
0.0
 41
0.0
 42
0.0
 43
0.0
 44
431.8
 45
279.4
 46
0.0
 47
0.0
 48
0.0
 49
0.0
140
0.0
141
0.0
142
1.0
143
1.0
 70
0
 72
1
 73
0
 74
0
  7

 75
0
147
1.0
148
0.0
149
0.0
100
AcDbLayout
  1
Layout1
 70
0
 71
1
 10
0.0
 20
0.0
 11
431.8
 21
279.4
 12
0.0
 22
0.0
 32
0.0
 14
0.0
 24
0.0
 34
0.0
 15
0.0
 25
0.0
 35
0.0
146
0.0
 13
0.0
 23
0.0
 33
0.0
 16
1.0
 26
0.0
 36
0.0
 17
0.0
 27
1.0
 37
0.0
 76
0
330
213
345
0
346
0
  0
ENDSEC
  0
EOF
